<?xml version="1.0" standalone="no"?>
<!DOCTYPE svg PUBLIC "-//W3C//DTD SVG 1.1//EN" "http://www.w3.org/Graphics/SVG/1.1/DTD/svg11.dtd" >
<svg xmlns="http://www.w3.org/2000/svg" xmlns:xlink="http://www.w3.org/1999/xlink" version="1.1">
<metadata>
Created by FontForge 20170731 at Thu Jun  8 00:36:49 2017
 By Aleksey,,,
(c) Copyright 1998, 2016 Neufville Digital. ALL RIGHTS RESERVED. This font is licensed, not sold, and may not be reproduced without the written consent of Neufville Digital. Parts (c) Visualogik Technology &#38; Design, 1998, 2016.
</metadata>
<defs>
<font id="Futura-Bold" horiz-adv-x="680" >
  <font-face 
    font-family="Futura"
    font-weight="700"
    font-stretch="normal"
    units-per-em="1000"
    panose-1="2 11 8 2 2 2 4 2 2 4"
    ascent="800"
    descent="-200"
    x-height="513"
    cap-height="754"
    bbox="-227 -344 1459 1099"
    underline-thickness="50"
    underline-position="-200"
    unicode-range="U+000D-FB04"
  />
<missing-glyph horiz-adv-x="500" 
d="M51 0v754h398v-754h-398zM424 21l4 4v708h-356v-712h352z" />
    <glyph glyph-name="IJ" unicode="IJ" horiz-adv-x="855" 
d="M776 754v-569q0 -33 -3.5 -61t-11.5 -48q-17 -42 -57 -79q-70 -64 -174 -64q-121 0 -197 111l128 131q5 -34 22 -54t42 -20q55 0 55 87v566h196zM275 754v-754h-196v754h196z" />
    <glyph glyph-name="ij" unicode="ij" horiz-adv-x="627" 
d="M243 513v-513h-181v513h181zM50 710q0 21 8 39.5t22 32.5t32.5 22t39.5 8t39.5 -8t32.5 -22t22 -32.5t8 -39.5t-8 -39.5t-22 -32.5t-32.5 -22t-39.5 -8t-39.5 8t-32.5 22t-22 32.5t-8 39.5zM566 513v-769h-181v769h181zM373 710q0 21 8 39.5t22 32.5t32.5 22t39.5 8
t39.5 -8t32.5 -22t22 -32.5t8 -39.5t-8 -39.5t-22 -32.5t-32.5 -22t-39.5 -8t-39.5 8t-32.5 22t-22 32.5t-8 39.5z" />
    <glyph glyph-name="f_f" unicode="ff" horiz-adv-x="744" 
d="M611 362v-362h-181v362h-172v-362h-181v362h-65v151h65v95q0 104 82 176q80 68 185 68q98 0 174 -59q63 48 141 48q20 0 39.5 -5t39.5 -14v-158q-36 18 -63 18q-36 0 -54 -27q-10 -15 -10 -60v-82h127v-151h-127zM430 608q0 37 -25 65q-24 28 -61 28t-62 -28
q-24 -29 -24 -65v-95h172v95z" />
    <glyph glyph-name="fi" unicode="fi" horiz-adv-x="673" 
d="M77 513v95q0 50 21.5 94.5t58 77.5t85 52.5t102.5 19.5t102.5 -19t85 -52t58 -77.5t21.5 -95.5v-23h-181v23q0 18 -6.5 34.5t-18 29.5t-27 21t-34.5 8q-37 0 -61.5 -28t-24.5 -65v-95h104v-151h-104v-362h-181v362h-65v151h65zM611 0h-181v513h181v-513z" />
    <glyph glyph-name="fl" unicode="fl" horiz-adv-x="673" 
d="M77 513v95q0 51 21.5 95.5t58 77.5t85 52t102.5 19t102.5 -19t85 -52t58 -77.5t21.5 -95.5v-608h-181v608q0 18 -6.5 34.5t-18 29.5t-27 21t-34.5 8t-35 -8t-27 -20.5t-17.5 -29.5t-6.5 -35v-95h104v-151h-104v-362h-181v362h-65v151h65z" />
    <glyph glyph-name="f_f_i" unicode="ffi" horiz-adv-x="1026" 
d="M715 513v-151h-104v-362h-181v362h-172v-362h-181v362h-65v151h65v95q0 104 82 176q80 68 185 68q49 0 93.5 -16t82.5 -45q38 30 82 45.5t95 15.5q106 0 185 -68q82 -70 82 -176v-23h-181v23q0 40 -24 67q-12 14 -27.5 20t-34.5 6q-37 0 -62 -28q-20 -24 -24 -52v-108
h104zM964 0h-181v513h181v-513zM430 513v95q0 37 -25 65q-24 28 -61 28t-62 -28q-24 -29 -24 -65v-95h172z" />
    <glyph glyph-name="f_f_l" unicode="ffl" horiz-adv-x="1026" 
d="M611 362v-362h-181v362h-172v-362h-181v362h-65v151h65v95q0 104 82 176q80 68 185 68q100 0 176 -61q74 61 177 61q105 0 184 -68q83 -71 83 -176v-608h-181v608q0 19 -5.5 36.5t-18.5 31.5q-12 14 -27.5 19.5t-34.5 5.5q-38 0 -62 -28q-8 -11 -14 -21.5t-8 -22.5
q-2 -8 -2 -16.5v-17.5v-82h104v-151h-104zM430 608q0 37 -25 65q-24 28 -61 28t-62 -28q-24 -29 -24 -65v-95h172v95z" />
    <glyph glyph-name=".notdef" horiz-adv-x="500" 
d="M51 0v754h398v-754h-398zM424 21l4 4v708h-356v-712h352z" />
    <glyph glyph-name=".null" horiz-adv-x="500" 
 />
    <glyph glyph-name=".null" horiz-adv-x="500" 
 />
    <glyph glyph-name="nonmarkingreturn" unicode="&#xd;" horiz-adv-x="500" 
 />
    <glyph glyph-name="space" unicode=" " horiz-adv-x="340" 
 />
    <glyph glyph-name="exclam" unicode="!" horiz-adv-x="385" 
d="M98 256v498h188v-498h-188zM75 96q0 24 9 45.5t25 37.5t37.5 25t45.5 9t45.5 -9t37.5 -25t25 -37.5t9 -45.5t-9 -45.5t-25 -37.5t-37.5 -25t-45.5 -9t-45.5 9t-37.5 25t-25 37.5t-9 45.5z" />
    <glyph glyph-name="quotedbl" unicode="&#x22;" horiz-adv-x="464" 
d="M391 451h-107l-27 303h161zM180 451h-107l-27 303h162z" />
    <glyph glyph-name="numbersign" unicode="#" 
d="M395 433h-97l-13 -96h97zM635 337v-130h-120l-27 -207h-149l27 207h-97l-27 -207h-148l28 207h-104v130h120l12 96h-102v129h119l25 192h147l-25 -192h97l26 192h148l-25 -192h102v-129h-118l-13 -96h104z" />
    <glyph glyph-name="dollar" unicode="$" 
d="M404 873v-121q108 -11 182 -58l-74 -144q-64 49 -126 49q-38 0 -62 -17.5t-24 -39.5q0 -20 19 -38t50 -29l59 -20q99 -34 143 -83.5t44 -128.5q0 -48 -11 -85t-36 -66t-65.5 -51t-98.5 -40v-124h-92v119q-31 0 -66 7.5t-69 20t-63.5 29t-48.5 34.5l81 151q94 -83 183 -83
q37 0 64.5 20t27.5 52q0 44 -65 65l-57 18q-51 16 -87 35t-59 44t-34 56.5t-11 72.5q0 43 12.5 83t38 71.5t63.5 53t90 26.5v121h92z" />
    <glyph glyph-name="percent" unicode="%" horiz-adv-x="1013" 
d="M684 177q0 -36 24.5 -61t60.5 -25q35 0 60 25t25 60q0 18 -7 33.5t-19 27t-27.5 18t-31.5 6.5q-33 0 -59 -24t-26 -60zM562 179q0 42 15.5 75.5t43 57t66.5 36t86 12.5q45 0 82 -13.5t63.5 -38t41.5 -58t15 -72.5q0 -42 -15 -76.5t-42.5 -59t-66 -38t-85.5 -13.5
q-46 0 -83.5 13t-64.5 37.5t-41.5 59.5t-14.5 78zM676 754h97l-437 -754h-98zM159 579q0 -34 24 -60t61 -26q17 0 32.5 7t27 18.5t18.5 27t7 32.5q0 18 -7 33.5t-19 27t-27.5 18t-31.5 6.5q-34 0 -59.5 -24.5t-25.5 -59.5zM38 581q0 42 15.5 76t43.5 57t66.5 35.5t85.5 12.5
q43 0 80 -13.5t64 -37.5t42 -57.5t15 -73.5q0 -43 -15.5 -77.5t-43 -59t-66 -37.5t-84.5 -13q-93 0 -148 50.5t-55 137.5z" />
    <glyph glyph-name="ampersand" unicode="&#x26;" horiz-adv-x="855" 
d="M400 479q70 42 70 94q0 28 -18.5 48.5t-47.5 20.5q-27 0 -45 -18t-18 -45q0 -36 59 -100zM319 315q-71 -44 -71 -88q0 -16 7 -29.5t19 -23t27.5 -15t33.5 -5.5q50 0 103 33zM581 288q60 57 98 108l111 -107q-17 -23 -38.5 -46.5t-49.5 -49.5l-15 -14l168 -179h-244
l-66 69q-135 -90 -259 -90q-53 0 -97 16t-76 45t-50 68.5t-18 86.5q0 42 11.5 74.5t39.5 62.5q21 23 46.5 39.5t62.5 33.5l21 10l-13 15q-58 73 -58 139q0 44 18 82t49.5 65.5t74.5 43t93 15.5q51 0 94 -15.5t74.5 -43.5t49 -65.5t17.5 -81.5q0 -30 -7 -54.5t-23.5 -46
t-43 -41t-65.5 -39.5z" />
    <glyph glyph-name="quotesingle" unicode="'" horiz-adv-x="253" 
d="M180 451h-107l-27 303h161z" />
    <glyph glyph-name="parenleft" unicode="(" horiz-adv-x="382" 
d="M329 798q-115 -196 -115 -468q0 -66 8.5 -133.5t23.5 -129.5t36 -115.5t47 -93.5l-109 -62q-70 102 -107.5 240t-37.5 301q0 72 9.5 144t27.5 140t45 128.5t63 110.5z" />
    <glyph glyph-name="parenright" unicode=")" horiz-adv-x="382" 
d="M53 -142q115 198 115 468q0 64 -8.5 131.5t-24 130.5t-36.5 117t-46 93l109 62q70 -102 107.5 -239.5t37.5 -302.5q0 -72 -9.5 -144t-28 -139t-45.5 -128t-62 -111z" />
    <glyph glyph-name="asterisk" unicode="*" 
d="M295 830h90l-18 -137l125 58l28 -84l-136 -26l95 -100l-73 -53l-66 121l-66 -121l-72 53l94 100l-135 26l27 84l124 -59z" />
    <glyph glyph-name="plus" unicode="+" 
d="M72 441h204v204h128v-204h203v-128h-203v-204h-128v204h-204v128z" />
    <glyph glyph-name="comma" unicode="," horiz-adv-x="340" 
d="M118 191h170l-184 -331h-116z" />
    <glyph glyph-name="hyphen" unicode="-" horiz-adv-x="287" 
d="M0 343h287v-151h-287v151z" />
    <glyph glyph-name="period" unicode="." horiz-adv-x="340" 
d="M53 96q0 24 9 45.5t25 37.5t37.5 25t45.5 9t45.5 -9t37.5 -25t25 -37.5t9 -45.5t-9 -45.5t-25 -37.5t-37.5 -25t-45.5 -9t-45.5 9t-37.5 25t-25 37.5t-9 45.5z" />
    <glyph glyph-name="slash" unicode="/" horiz-adv-x="560" 
d="M410 830h143l-412 -1003h-142z" />
    <glyph glyph-name="zero" unicode="0" 
d="M214 378q0 -50 9 -91t25.5 -71t39.5 -46.5t52 -16.5q28 0 51.5 16.5t39.5 46.5t25 71t9 91q0 49 -9 90.5t-25 71t-39.5 46t-51.5 16.5q-29 0 -52 -16.5t-39.5 -46t-25.5 -71t-9 -90.5zM20 378q0 90 23.5 163.5t66 125.5t101 80.5t129.5 28.5q70 0 129 -28.5t101 -80.5
t65.5 -125.5t23.5 -163.5t-23.5 -163.5t-65.5 -126t-101 -81t-129 -28.5q-71 0 -129.5 28.5t-101 81t-66 126t-23.5 163.5z" />
    <glyph glyph-name="one" unicode="1" 
d="M265 588h-110v166h306v-754h-196v588z" />
    <glyph glyph-name="two" unicode="2" 
d="M635 0h-607l187 194q74 77 116 130.5t62.5 90.5t25.5 60t5 39q0 17 -5.5 33t-16.5 28.5t-26.5 20t-36.5 7.5q-40 0 -62.5 -26t-22.5 -65q0 -11 3 -32h-214q0 66 21.5 120t60.5 93t92.5 60t117.5 21q63 0 116.5 -20t92.5 -56t61 -85.5t22 -107.5q0 -62 -26.5 -114.5
t-84.5 -107.5l-125 -117h244v-166z" />
    <glyph glyph-name="three" unicode="3" 
d="M299 460q8 -1 13.5 -1h9.5q37 0 60 22t23 57q0 34 -21.5 55t-55.5 21q-36 0 -58 -24t-22 -62h-181q7 59 29.5 105t57.5 77.5t82 48t104 16.5q56 0 101.5 -15.5t78 -44t50 -69t17.5 -90.5q0 -54 -20.5 -88.5t-58.5 -59.5q58 -18 90.5 -64.5t32.5 -114.5q0 -56 -22 -102
t-61.5 -79t-94 -51t-119.5 -18q-87 0 -157 34t-112 108q-19 33 -25.5 66t-6.5 67h194q2 -53 31 -80.5t78 -27.5q52 0 76 28t24 69q0 49 -29 74t-69 25q-10 0 -19 -1.5t-20 -3.5v123z" />
    <glyph glyph-name="four" unicode="4" 
d="M378 305v297l-173 -297h173zM560 305h91v-150h-91v-155h-182v155h-364v126l288 473h258v-449z" />
    <glyph glyph-name="five" unicode="5" 
d="M560 588h-261l-13 -83q18 2 33 3.5t31 1.5q57 0 106 -20t84 -55t55 -84t20 -107q0 -61 -22.5 -110t-63.5 -83.5t-100 -53t-131 -18.5q-68 0 -129.5 16.5t-115.5 50.5l29 184q50 -43 102 -65.5t99 -22.5q60 0 95 32.5t35 80.5q0 56 -47 90.5t-123 34.5q-34 0 -70 -7.5
t-71 -23.5l63 405h395v-166z" />
    <glyph glyph-name="six" unicode="6" 
d="M539 754l-214 -246h4q28 17 46 20.5t32 3.5q55 0 101 -21t80 -57.5t53 -85.5t19 -105q0 -60 -22 -111.5t-63.5 -90t-100.5 -60.5t-133 -22q-75 0 -134 22t-100.5 60t-63.5 88.5t-22 107.5q0 64 28.5 138.5t87.5 146.5l175 212h227zM215 259q0 -26 10 -48.5t27 -39.5
t39.5 -27t48.5 -10t48.5 10t39.5 27t27 39.5t10 48.5t-10 48.5t-27 39.5t-39.5 27t-48.5 10t-48.5 -10t-39.5 -27t-27 -39.5t-10 -48.5z" />
    <glyph glyph-name="seven" unicode="7" 
d="M395 588h-315v166h619l-432 -754h-216z" />
    <glyph glyph-name="eight" unicode="8" 
d="M250 228q0 -19 7 -36t19 -29.5t28.5 -20t35.5 -7.5q18 0 34.5 7.5t29 20t19.5 29t7 35.5q0 38 -26.5 64.5t-63.5 26.5q-38 0 -64 -26.5t-26 -63.5zM257 562q0 -35 24 -59.5t59 -24.5q18 0 33 7t26 18.5t17.5 26.5t6.5 31q0 34 -24 58.5t-59 24.5t-59 -24t-24 -58z
M201 398q-118 49 -118 166q0 48 19 86.5t52.5 66.5t81 43t104.5 15t104.5 -15t81 -43t52.5 -66.5t19 -86.5q0 -30 -6 -53.5t-20.5 -43t-38 -36.5t-58.5 -33q154 -60 154 -194q0 -48 -21.5 -89t-60 -71t-91 -47t-115.5 -17q-61 0 -113.5 16.5t-91.5 46.5t-61 71t-22 90
q0 137 149 194z" />
    <glyph glyph-name="nine" unicode="9" 
d="M141 0l214 246h-4q-28 -17 -46 -20.5t-32 -3.5q-55 0 -101.5 21t-80 57.5t-52.5 85.5t-19 105q0 60 22 111.5t63.5 90t100.5 60.5t133 22q75 0 134 -22t100.5 -60t63.5 -88.5t22 -107.5q0 -64 -28.5 -138.5t-87.5 -146.5l-175 -212h-227zM465 495q0 26 -10 48.5t-27 39.5
t-39.5 27t-48.5 10t-48.5 -10t-39.5 -27t-27 -39.5t-10 -48.5t10 -48.5t27 -39.5t39.5 -27t48.5 -10t48.5 10t39.5 27t27 39.5t10 48.5z" />
    <glyph glyph-name="colon" unicode=":" horiz-adv-x="340" 
d="M53 433q0 24 9 45.5t25 37.5t37.5 25t45.5 9t45.5 -9t37.5 -25t25 -37.5t9 -45.5t-9 -45.5t-25 -37.5t-37.5 -25t-45.5 -9t-45.5 9t-37.5 25t-25 37.5t-9 45.5zM53 96q0 24 9 45.5t25 37.5t37.5 25t45.5 9t45.5 -9t37.5 -25t25 -37.5t9 -45.5t-9 -45.5t-25 -37.5
t-37.5 -25t-45.5 -9t-45.5 9t-37.5 25t-25 37.5t-9 45.5z" />
    <glyph glyph-name="semicolon" unicode=";" horiz-adv-x="340" 
d="M118 191h170l-184 -331h-116zM79 433q0 24 9 45.5t25 37.5t37.5 25t45.5 9t45.5 -9t37.5 -25t25 -37.5t9 -45.5t-9 -45.5t-25 -37.5t-37.5 -25t-45.5 -9t-45.5 9t-37.5 25t-25 37.5t-9 45.5z" />
    <glyph glyph-name="less" unicode="&#x3c;" 
d="M585 743v-213l-264 -148l264 -149v-211l-490 272v178z" />
    <glyph glyph-name="equal" unicode="=" 
d="M72 341h535v-128h-535v128zM72 542h535v-129h-535v129z" />
    <glyph glyph-name="greater" unicode="&#x3e;" 
d="M95 22v213l263 148l-263 149v211l490 -271v-179z" />
    <glyph glyph-name="question" unicode="?" horiz-adv-x="618" 
d="M208 253v195q12 -2 22 -3.5t19 -1.5q27 0 51 7.5t41.5 20.5t27.5 31.5t10 40.5q0 30 -20 52t-54 22q-31 0 -49.5 -21t-18.5 -55h-199q0 51 20.5 93.5t57 74t86 49t107.5 17.5q59 0 107.5 -19.5t83.5 -52.5t54 -76t19 -89q0 -150 -181 -213v-72h-184zM188 96q0 24 9 45.5
t25 37.5t37.5 25t45.5 9t45.5 -9t37.5 -25t25 -37.5t9 -45.5t-9 -45.5t-25 -37.5t-37.5 -25t-45.5 -9t-45.5 9t-37.5 25t-25 37.5t-9 45.5z" />
    <glyph glyph-name="at" unicode="@" horiz-adv-x="878" 
d="M650 413l-30 -249q-3 -24 -3 -48q0 -10 5 -16t12 -6q23 0 42.5 15t34 40t22.5 57t8 66q0 57 -22 104t-60.5 80t-90.5 51t-112 18q-69 0 -127.5 -23.5t-101 -64t-66.5 -96.5t-24 -120q0 -72 26 -129t70.5 -96t104 -59.5t126.5 -20.5q39 0 69 2.5t56.5 9.5t51 19t53.5 31
l43 -84q-61 -38 -127.5 -56.5t-144.5 -18.5q-98 0 -176.5 32t-133.5 87t-85 128t-30 155q0 85 32 158t88 127t131.5 85t163.5 31q81 0 151 -27t121.5 -74t81 -110.5t29.5 -135.5q0 -61 -15.5 -111.5t-44 -87t-68.5 -56.5t-90 -20q-27 0 -48.5 14t-37.5 38q-33 -33 -63 -41.5
t-56 -8.5q-32 0 -66.5 15.5t-63 43.5t-47.5 67t-19 86q0 46 18 84.5t47 66t66.5 42.5t76.5 15q43 0 75 -16.5t47 -43.5l9 51h92zM328 215q0 -20 8 -39t21.5 -33t32 -22.5t38.5 -8.5t38.5 8.5t32 22.5t21.5 33t8 39t-8 38.5t-21.5 33t-32 23t-38.5 8.5t-38.5 -8.5t-32 -23
t-21.5 -33t-8 -38.5z" />
    <glyph glyph-name="A" unicode="A" horiz-adv-x="802" 
d="M489 280l-88 251l-88 -251h176zM541 131h-280l-45 -131h-209l287 754h214l287 -754h-209z" />
    <glyph glyph-name="B" unicode="B" horiz-adv-x="692" 
d="M275 152h43q74 0 106 19t32 61t-32 61t-106 19h-43v-160zM275 458h36q92 0 92 73t-92 73h-36v-146zM79 754h292q104 0 158 -50t54 -144q0 -57 -20.5 -94.5t-62.5 -63.5q42 -8 71.5 -24.5t48 -40.5t26.5 -54t8 -64q0 -53 -18.5 -94t-52 -69t-81.5 -42t-108 -14h-315v754z
" />
    <glyph glyph-name="C" unicode="C" horiz-adv-x="667" 
d="M622 502q-68 83 -168 83q-44 0 -81.5 -16t-64.5 -43.5t-42.5 -65.5t-15.5 -82q0 -45 15.5 -83t43 -66t64.5 -44t80 -16q94 0 169 80v-232l-20 -7q-45 -16 -84 -23.5t-77 -7.5q-78 0 -149.5 29.5t-126 83t-87.5 127t-33 160.5t32.5 159.5t87 125t126.5 82t151 29.5
q45 0 88.5 -9.5t91.5 -29.5v-234z" />
    <glyph glyph-name="D" unicode="D" horiz-adv-x="786" 
d="M275 166h45q51 0 91 16t67.5 44t42 66.5t14.5 84.5q0 45 -15 84t-42.5 67t-67.5 44t-90 16h-45v-422zM79 754h290q77 0 144.5 -31t118 -82.5t79.5 -120t29 -143.5q0 -74 -28.5 -142.5t-79 -120.5t-118 -83t-145.5 -31h-290v754z" />
    <glyph glyph-name="E" unicode="E" horiz-adv-x="570" 
d="M508 588h-233v-126h220v-166h-220v-130h233v-166h-429v754h429v-166z" />
    <glyph glyph-name="F" unicode="F" horiz-adv-x="549" 
d="M511 588h-236v-126h215v-166h-215v-296h-196v754h432v-166z" />
    <glyph glyph-name="G" unicode="G" horiz-adv-x="880" 
d="M446 422h389q0 -60 -5 -109t-20 -91q-21 -59 -57 -104.5t-84.5 -76t-106.5 -46.5t-122 -16q-88 0 -160.5 29t-124.5 81.5t-81 126t-29 162.5q0 88 28.5 161.5t81 125.5t126.5 81t165 29q118 0 207 -51t141 -158l-186 -77q-26 62 -67.5 89t-94.5 27q-44 0 -80 -16.5
t-61.5 -47t-40 -73.5t-14.5 -96q0 -48 12.5 -89t37.5 -71t62 -46.5t86 -16.5q29 0 56 6.5t48.5 21t35.5 37.5t19 56h-161v152z" />
    <glyph glyph-name="H" unicode="H" horiz-adv-x="833" 
d="M275 463h283v291h196v-754h-196v311h-283v-311h-196v754h196v-291z" />
    <glyph glyph-name="I" unicode="I" horiz-adv-x="354" 
d="M275 754v-754h-196v754h196z" />
    <glyph glyph-name="J" unicode="J" horiz-adv-x="530" 
d="M450 754v-523q0 -33 -3.5 -61t-11.5 -48q-13 -32 -35.5 -58.5t-52.5 -45t-66.5 -29t-76.5 -10.5q-121 0 -197 111l128 131q5 -34 22 -54t42 -20q55 0 55 87v520h196z" />
    <glyph glyph-name="K" unicode="K" horiz-adv-x="792" 
d="M275 443l239 311h242l-299 -357l327 -397h-254l-255 327v-327h-196v754h196v-311z" />
    <glyph glyph-name="L" unicode="L" horiz-adv-x="532" 
d="M275 754v-588h235v-166h-431v754h196z" />
    <glyph glyph-name="M" unicode="M" horiz-adv-x="1035" 
d="M45 0l128 754h194l151 -402l150 402h194l128 -754h-195l-65 434l-178 -434h-78l-169 434l-65 -434h-195z" />
    <glyph glyph-name="N" unicode="N" horiz-adv-x="911" 
d="M79 0v754h196l362 -461v461h195v-754h-195l-362 461v-461h-196z" />
    <glyph glyph-name="O" unicode="O" horiz-adv-x="925" 
d="M250 377q0 -45 17 -83t46 -66t67.5 -43.5t81.5 -15.5t81.5 15.5t68 43.5t46.5 66t17 83t-17 83t-46.5 66t-68 43.5t-81.5 15.5t-81.5 -15.5t-67.5 -43.5t-46 -66t-17 -83zM45 377q0 84 31 156.5t86 126.5t131.5 84.5t168.5 30.5q91 0 168 -30.5t132.5 -84.5t86.5 -126.5
t31 -156.5t-31 -156.5t-86.5 -126.5t-132.5 -84.5t-168 -30.5q-92 0 -168.5 30.5t-131.5 84.5t-86 126.5t-31 156.5z" />
    <glyph glyph-name="P" unicode="P" horiz-adv-x="678" 
d="M275 408h65q108 0 108 94t-108 94h-65v-188zM275 0h-196v754h312q127 0 194.5 -66t67.5 -186t-67.5 -186t-194.5 -66h-116v-250z" />
    <glyph glyph-name="Q" unicode="Q" horiz-adv-x="925" 
d="M45 377q0 84 31 156.5t86 126.5t131.5 84.5t168.5 30.5q91 0 168 -30.5t132.5 -84.5t86.5 -126.5t31 -156.5q0 -78 -25.5 -145t-73.5 -119l128 -134l-180 -28l-69 71q-44 -20 -93.5 -31.5t-104.5 -11.5q-92 0 -168.5 30.5t-131.5 84.5t-86 126.5t-31 156.5zM250 377
q0 -45 17 -83t46 -66t67.5 -43.5t81.5 -15.5q26 0 52 6l-112 118l185 23l52 -55q36 50 36 116q0 45 -17 83t-46.5 66t-68 43.5t-81.5 15.5t-81.5 -15.5t-67.5 -43.5t-46 -66t-17 -83z" />
    <glyph glyph-name="R" unicode="R" horiz-adv-x="709" 
d="M275 417h37q58 0 89 24t31 69t-31 69t-89 24h-37v-186zM706 0h-244l-187 290v-290h-196v754h305q63 0 110 -18.5t77.5 -50.5t46 -74t15.5 -90q0 -86 -41.5 -139.5t-122.5 -72.5z" />
    <glyph glyph-name="S" unicode="S" horiz-adv-x="646" 
d="M493 561q-32 26 -64 38.5t-62 12.5q-38 0 -62 -18t-24 -47q0 -20 12 -33t31.5 -22.5t44 -16.5t48.5 -15q96 -32 140.5 -85.5t44.5 -139.5q0 -58 -19.5 -105t-57 -80.5t-92 -52t-123.5 -18.5q-143 0 -265 85l84 158q44 -39 87 -58t85 -19q48 0 71.5 22t23.5 50
q0 17 -6 29.5t-20 23t-36.5 19.5t-54.5 20q-38 12 -74.5 26.5t-65 38.5t-46 60.5t-17.5 92.5t18.5 101.5t52 78t82 50.5t108.5 18q56 0 117 -15.5t117 -45.5z" />
    <glyph glyph-name="T" unicode="T" horiz-adv-x="534" 
d="M365 588v-588h-196v588h-161v166h518v-166h-161z" />
    <glyph glyph-name="U" unicode="U" horiz-adv-x="815" 
d="M275 754v-410q0 -33 2.5 -67.5t15 -62.5t39.5 -45.5t76 -17.5t75.5 17.5t39.5 45.5t15.5 62.5t2.5 67.5v410h195v-437q0 -176 -80.5 -257t-247.5 -81t-248 81t-81 257v437h196z" />
    <glyph glyph-name="V" unicode="V" horiz-adv-x="791" 
d="M213 754l182 -459l183 459h213l-318 -754h-156l-317 754h213z" />
    <glyph glyph-name="W" unicode="W" horiz-adv-x="1146" 
d="M205 754l130 -487l160 487h156l160 -487l130 487h205l-225 -754h-200l-148 437l-148 -437h-200l-225 754h205z" />
    <glyph glyph-name="X" unicode="X" horiz-adv-x="804" 
d="M295 402l-235 352h242l102 -195l126 195h242l-249 -352l281 -402h-239l-151 246l-177 -246h-237z" />
    <glyph glyph-name="Y" unicode="Y" horiz-adv-x="723" 
d="M261 362l-275 392h234l140 -206l139 206h234l-276 -392v-362h-196v362z" />
    <glyph glyph-name="Z" unicode="Z" horiz-adv-x="714" 
d="M344 166h316v-166h-645l357 588h-297v166h624z" />
    <glyph glyph-name="bracketleft" unicode="[" horiz-adv-x="381" 
d="M233 724v-790h102v-107h-245v1003h245v-106h-102z" />
    <glyph glyph-name="backslash" unicode="\" horiz-adv-x="560" 
d="M150 830l411 -1003h-143l-412 1003h144z" />
    <glyph glyph-name="bracketright" unicode="]" horiz-adv-x="381" 
d="M147 -67v790h-102v107h246v-1003h-246v106h102z" />
    <glyph glyph-name="asciicircum" unicode="^" horiz-adv-x="565" 
d="M194 381h-187l158 379h236l158 -379h-187l-89 234z" />
    <glyph glyph-name="underscore" unicode="_" horiz-adv-x="565" 
d="M0 -54h565v-125h-565v125z" />
    <glyph glyph-name="grave" unicode="`" horiz-adv-x="565" 
d="M109 742l115 83l143 -175l-84 -62z" />
    <glyph glyph-name="a" unicode="a" horiz-adv-x="701" 
d="M230 258q0 -25 9 -46.5t24.5 -37.5t37 -25t46.5 -9q24 0 45.5 9t37 25t25 37t9.5 45t-9.5 45.5t-25 37.5t-37 25t-45.5 9q-25 0 -46.5 -9t-37 -25t-24.5 -36.5t-9 -44.5zM458 513h182v-513h-182v57q-58 -73 -157 -73q-56 0 -103 20.5t-82 57.5t-54.5 87t-19.5 109
q0 55 19 104.5t53 86.5t81 58.5t104 21.5q96 0 159 -67v51z" />
    <glyph glyph-name="b" unicode="b" horiz-adv-x="701" 
d="M471 255q0 24 -9 45.5t-25 37.5t-37 25.5t-46 9.5q-24 0 -45 -9t-36.5 -25t-25 -37.5t-9.5 -45.5t9 -45t25 -36.5t37.5 -25t45.5 -9.5t45 9t36.5 25t25 37t9.5 44zM243 830v-368q64 67 160 67q57 0 104.5 -21.5t81 -58t52.5 -86t19 -105.5q0 -57 -19.5 -107t-54.5 -87
t-82.5 -58.5t-102.5 -21.5q-100 0 -158 73v-57h-181v830h181z" />
    <glyph glyph-name="c" unicode="c" horiz-adv-x="490" 
d="M449 347q-47 32 -95 32q-26 0 -48.5 -9t-39.5 -25.5t-26.5 -39t-9.5 -50.5q0 -27 9.5 -49.5t26 -39t39.5 -25.5t49 -9q51 0 95 35v-154q-67 -29 -127 -29q-56 0 -106.5 19t-89 54.5t-61.5 85t-23 110.5t22 111.5t60 87t90.5 57t112.5 20.5q66 0 122 -28v-154z" />
    <glyph glyph-name="d" unicode="d" horiz-adv-x="701" 
d="M230 258q0 -25 9 -46.5t24.5 -37.5t37 -25t46.5 -9q24 0 45.5 9t37 25t25 37t9.5 45t-9.5 45.5t-25 37.5t-37 25t-45.5 9t-45.5 -9t-37 -25t-25 -36.5t-9.5 -44.5zM458 830h182v-830h-182v57q-58 -73 -157 -73q-56 0 -103 21t-82 58t-54.5 87t-19.5 108q0 55 18.5 104.5
t52.5 86.5t81.5 58.5t104.5 21.5q96 0 159 -67v368z" />
    <glyph glyph-name="e" unicode="e" horiz-adv-x="647" 
d="M437 331q-9 38 -37 61t-68 23q-42 0 -68.5 -22t-33.5 -62h207zM225 226q0 -117 110 -117q59 0 89 48h175q-53 -176 -265 -176q-65 0 -119 19.5t-92.5 55.5t-59.5 86t-21 112q0 64 20 115.5t57 87.5t89.5 55.5t118.5 19.5q65 0 117 -19.5t88 -56.5t55 -90.5t19 -120.5v-19
h-381z" />
    <glyph glyph-name="f" unicode="f" horiz-adv-x="391" 
d="M258 362v-362h-181v362h-65v151h65v77q0 64 12 102q10 32 32 59.5t51.5 47.5t63.5 31t67 11q23 0 42.5 -5t39.5 -14v-158q-18 9 -33.5 13.5t-32.5 4.5q-11 0 -22.5 -3.5t-21.5 -14.5t-13.5 -31.5t-3.5 -55.5v-64h127v-151h-127z" />
    <glyph glyph-name="g" unicode="g" horiz-adv-x="697" 
d="M230 259q0 -25 9 -46.5t24.5 -37.5t37 -25t46.5 -9q24 0 45.5 9t37 25t25 37.5t9.5 45.5q0 25 -9.5 46t-25.5 37t-37.5 25t-44.5 9q-24 0 -45 -9.5t-37 -25t-25.5 -36.5t-9.5 -45zM636 513v-478q0 -43 -5 -77t-14 -60q-12 -33 -37.5 -61.5t-61.5 -49.5t-81.5 -33
t-98.5 -12q-60 0 -110 15t-87.5 41.5t-61.5 62t-32 77.5h204q19 -51 86 -51q57 0 87.5 32t30.5 89v49q-20 -19 -38.5 -31.5t-37.5 -20.5t-40 -11.5t-46 -3.5q-55 0 -101 19t-79.5 53t-52 81.5t-18.5 105.5q0 59 20 109.5t54.5 88t82 59t103.5 21.5q91 0 153 -68v54h181z" />
    <glyph glyph-name="h" unicode="h" horiz-adv-x="664" 
d="M62 830h181v-382q37 45 75 60.5t89 15.5q97 0 146.5 -53.5t49.5 -144.5v-326h-181v259q0 39 -6 63t-20 37q-24 21 -58 21q-46 0 -70.5 -27.5t-24.5 -78.5v-274h-181v830z" />
    <glyph glyph-name="i" unicode="i" horiz-adv-x="305" 
d="M243 513v-513h-181v513h181zM50 710q0 21 8 39.5t22 32.5t32.5 22t39.5 8t39.5 -8t32.5 -22t22 -32.5t8 -39.5t-8 -39.5t-22 -32.5t-32.5 -22t-39.5 -8t-39.5 8t-32.5 22t-22 32.5t-8 39.5z" />
    <glyph glyph-name="j" unicode="j" horiz-adv-x="305" 
d="M243 513v-769h-181v769h181zM50 710q0 21 8 39.5t22 32.5t32.5 22t39.5 8t39.5 -8t32.5 -22t22 -32.5t8 -39.5t-8 -39.5t-22 -32.5t-32.5 -22t-39.5 -8t-39.5 8t-32.5 22t-22 32.5t-8 39.5z" />
    <glyph glyph-name="k" unicode="k" horiz-adv-x="698" 
d="M243 830v-502l190 185h248l-257 -237l272 -276h-254l-199 209v-209h-181v830h181z" />
    <glyph glyph-name="l" unicode="l" horiz-adv-x="305" 
d="M243 830v-830h-181v830h181z" />
    <glyph glyph-name="m" unicode="m" horiz-adv-x="992" 
d="M62 513h181v-63q74 71 166 71q114 0 174 -96q61 97 174 97q36 0 68 -10.5t55 -33t36.5 -58.5t13.5 -87v-333h-181v253q0 39 -5.5 64t-16 39t-24.5 19t-30 5q-87 0 -87 -127v-253h-181v253q0 39 -5 64.5t-14.5 40.5t-24.5 20.5t-35 5.5q-17 0 -32 -5t-26.5 -19.5t-18 -40
t-6.5 -66.5v-253h-181v513z" />
    <glyph glyph-name="n" unicode="n" horiz-adv-x="664" 
d="M62 513h181v-65q37 45 75 60.5t89 15.5q54 0 92.5 -17.5t65.5 -49.5q22 -26 30 -58t8 -73v-326h-181v259q0 38 -5.5 61.5t-19.5 37.5q-12 12 -27 17t-32 5q-46 0 -70.5 -27.5t-24.5 -78.5v-274h-181v513z" />
    <glyph glyph-name="o" unicode="o" horiz-adv-x="700" 
d="M233 259q0 -26 9.5 -47.5t25 -37.5t37 -25t45.5 -9t45.5 9t37 25t25 37.5t9.5 46.5q0 24 -9.5 45.5t-25 37.5t-37 25t-45.5 9t-45.5 -9t-37 -25t-25 -37t-9.5 -45zM42 261q0 57 23 106.5t64 86t97.5 57.5t123.5 21q66 0 122.5 -20.5t98 -57t64.5 -87t23 -111.5
t-23.5 -111.5t-64.5 -87t-98.5 -56.5t-124.5 -20q-66 0 -122 20t-96.5 57t-63.5 88.5t-23 114.5z" />
    <glyph glyph-name="p" unicode="p" horiz-adv-x="701" 
d="M471 255q0 24 -8.5 45.5t-24.5 37.5t-37.5 25.5t-46.5 9.5q-24 0 -45 -9t-36.5 -25t-25 -37.5t-9.5 -45.5t9 -45t25 -36.5t37.5 -25t45.5 -9.5t45 9t36.5 25t25 37t9.5 44zM243 -256h-181v769h181v-57q58 73 158 73q55 0 102.5 -21.5t82.5 -58.5t54.5 -87t19.5 -107
t-19.5 -106t-54 -86t-81.5 -58t-102 -21q-96 0 -160 66v-306z" />
    <glyph glyph-name="q" unicode="q" horiz-adv-x="701" 
d="M230 258q0 -25 9 -46.5t24.5 -37.5t37 -25t46.5 -9q24 0 45.5 9t37 25t25 37.5t9.5 45.5t-9.5 45t-25 37t-37 25t-45.5 9t-45.5 -9t-37 -25t-25 -36.5t-9.5 -44.5zM458 -256v306q-63 -66 -159 -66q-55 0 -102 21t-81.5 58t-54 86.5t-19.5 105.5q0 58 20 108t55 87t82 58
t102 21q99 0 157 -73v57h182v-769h-182z" />
    <glyph glyph-name="r" unicode="r" horiz-adv-x="465" 
d="M62 513h181v-84q29 46 71 70.5t98 24.5h15.5t19.5 -2v-173q-36 18 -78 18q-63 0 -94.5 -37.5t-31.5 -109.5v-220h-181v513z" />
    <glyph glyph-name="s" unicode="s" horiz-adv-x="509" 
d="M402 381q-50 26 -98 26q-25 0 -40.5 -10t-15.5 -27q0 -9 2.5 -14.5t11 -10.5t25 -9t43.5 -10q75 -15 112 -53.5t37 -98.5q0 -45 -18 -81t-50 -60.5t-77 -38t-99 -13.5q-104 0 -205 59l66 128q76 -52 144 -52q25 0 41 11t16 28q0 10 -2.5 16.5t-10.5 12t-23.5 10
t-40.5 9.5q-84 17 -117.5 50.5t-33.5 92.5q0 43 16 77.5t46 58.5t72.5 37t94.5 13q85 0 165 -33z" />
    <glyph glyph-name="t" unicode="t" horiz-adv-x="373" 
d="M264 362v-362h-181v362h-60v151h60v154h181v-154h103v-151h-103z" />
    <glyph glyph-name="u" unicode="u" horiz-adv-x="669" 
d="M243 513v-289q0 -95 92 -95t92 95v289h181v-324q0 -104 -68.5 -156t-204.5 -52t-204.5 52t-68.5 156v324h181z" />
    <glyph glyph-name="v" unicode="v" horiz-adv-x="652" 
d="M204 513l122 -263l124 263h202l-267 -513h-121l-264 513h204z" />
    <glyph glyph-name="w" unicode="w" horiz-adv-x="1025" 
d="M202 513l123 -270l128 270h114l128 -278l129 278h201l-268 -513h-121l-128 281l-122 -281h-123l-263 513h202z" />
    <glyph glyph-name="x" unicode="x" horiz-adv-x="742" 
d="M256 278l-208 235h236l88 -106l90 106h236l-213 -235l257 -278h-240l-131 152l-132 -152h-239z" />
    <glyph glyph-name="y" unicode="y" horiz-adv-x="688" 
d="M248 70l-248 443h210l137 -263l133 263h208l-412 -769h-203z" />
    <glyph glyph-name="z" unicode="z" horiz-adv-x="589" 
d="M326 151h216v-151h-520l242 362h-209v151h511z" />
    <glyph glyph-name="braceleft" unicode="{" horiz-adv-x="434" 
d="M230 328q20 -13 33 -26.5t21 -30t11 -37.5t3 -49v-167q0 -20 2.5 -33t9.5 -20t20.5 -9.5t36.5 -2.5h21v-130h-86q-40 0 -68 8.5t-46 28t-26.5 50.5t-8.5 76v189q0 47 -14 68.5t-48 28.5v123q62 12 62 86v189q0 88 34.5 125.5t117.5 37.5h83v-130h-20q-22 0 -36 -2
t-21.5 -9t-10 -20t-2.5 -34v-167q0 -32 -3 -52.5t-10.5 -36t-21 -28t-33.5 -26.5z" />
    <glyph glyph-name="bar" unicode="|" horiz-adv-x="565" 
d="M175 754h216v-942h-216v942z" />
    <glyph glyph-name="braceright" unicode="}" horiz-adv-x="434" 
d="M203 328q-20 13 -33.5 26.5t-21 30t-10.5 37.5t-3 49v168q0 21 -3 34t-10.5 20t-21 9t-34.5 2h-21v129h86q77 0 113 -36.5t36 -126.5v-189q0 -47 14 -68.5t48 -28.5v-123q-62 -14 -62 -86v-189q0 -88 -34.5 -125.5t-116.5 -37.5h-84v130h20q22 0 36 2t21.5 9t10 20
t2.5 34v168q0 30 3.5 51t11 37t20.5 28.5t33 25.5z" />
    <glyph glyph-name="asciitilde" unicode="~" horiz-adv-x="754" 
d="M102 687l23 50q24 53 60 79.5t88 26.5q19 0 49 -9t61.5 -19.5t60 -19t44.5 -8.5q14 0 25 2.5t20.5 9t18 18t18.5 28.5l82 -48q-20 -42 -39.5 -70.5t-40.5 -46t-45.5 -25.5t-53.5 -8q-17 0 -46.5 9t-61 19.5t-59.5 19.5t-41 9q-14 0 -25 -3t-20.5 -11t-18.5 -21.5
t-19 -34.5z" />
    <glyph glyph-name="uni0080" 
d="M39 498h82q33 104 124 179q114 93 258 93q52 0 109 -15l-48 -182q-13 3 -26 5t-27 2q-90 0 -146 -59q-5 -6 -10 -11.5t-9 -11.5h164l-25 -96h-175q-1 -8 -1.5 -15t-0.5 -15v-15.5t2 -15.5h159l-25 -95h-95q4 -5 8 -9.5t9 -9.5q57 -58 144 -58q14 0 26.5 2t25.5 5l49 -181
q-59 -15 -106 -15q-150 0 -271 101q-82 70 -113 165h-82v95h65q-1 8 -1 15v15v15.5t1 15.5h-65v96z" />
    <glyph glyph-name="nonbreakingspace" unicode="&#xa0;" horiz-adv-x="340" 
 />
    <glyph glyph-name="exclamdown" unicode="&#xa1;" horiz-adv-x="385" 
d="M98 324h188v-497h-188v497zM75 487q0 24 9 45.5t25 37.5t37.5 25t45.5 9t45.5 -9t37.5 -25t25 -37.5t9 -45.5t-9 -45.5t-25 -37.5t-37.5 -25t-45.5 -9t-45.5 9t-37.5 25t-25 37.5t-9 45.5z" />
    <glyph glyph-name="cent" unicode="&#xa2;" 
d="M483 743v-99q28 -6 59 -18v-162q-46 38 -92 38q-26 0 -48 -9.5t-38.5 -26.5t-26 -39.5t-9.5 -48.5q0 -27 10 -49t26.5 -38.5t38.5 -25.5t47 -9q53 0 92 39v-163q-17 -6 -32 -10t-27 -6v-105h-92v98q-54 4 -100 26t-80 58t-53.5 83.5t-19.5 101.5q0 56 17.5 102.5t50.5 82
t79.5 57.5t105.5 30v93h92z" />
    <glyph glyph-name="sterling" unicode="&#xa3;" 
d="M35 290v95h82q-29 53 -29 119q0 57 20.5 105.5t59 83.5t94 55t125.5 20q139 0 204.5 -68.5t65.5 -215.5h-198l3.5 21t1.5 15q0 18 -7 35t-19.5 30t-29.5 21t-37 8q-42 0 -68 -30.5t-26 -76.5q0 -34 8.5 -60.5t24.5 -61.5h169v-95h-141q2 -18 3.5 -33.5t1.5 -29.5
t-2.5 -29t-7.5 -32l27 -8q49 -14 82 -22t51 -8q23 0 36.5 13t13.5 36h121q-5 -90 -54 -141.5t-133 -51.5q-21 0 -55 8.5t-71 18t-73 18t-61 8.5q-51 0 -64 -37h-130q12 50 31.5 84t42.5 54.5t48 29.5t50 9q10 23 10 38q0 37 -21 75h-149z" />
    <glyph glyph-name="currency" unicode="&#xa4;" 
d="M342 581q-32 0 -60 -11.5t-49 -32t-33.5 -49t-12.5 -62.5q0 -32 12 -60t32.5 -49t48.5 -33t60 -12t60 12.5t49 33.5t33 49t12 60q0 30 -12 58t-33 49.5t-48.5 34t-58.5 12.5zM-14 155l116 117q-49 71 -49 155q0 82 50 156l-118 117l80 80l118 -117q77 49 158 49
q80 0 155 -48l116 115l79 -79l-115 -116q51 -80 51 -157q0 -79 -48 -155l116 -116l-79 -80l-116 116q-77 -51 -161 -51q-78 0 -158 50l-116 -115z" />
    <glyph glyph-name="yen" unicode="&#xa5;" 
d="M61 373v118h103l-160 263h223l114 -217l109 217h225l-166 -263h110v-118h-184l-7 -11v-60h191v-118h-191v-184h-186v184h-181v118h181v60l-6 11h-175z" />
    <glyph glyph-name="brokenbar" unicode="&#xa6;" horiz-adv-x="565" 
d="M175 173h216v-361h-216v361zM175 754h216v-409h-216v409z" />
    <glyph glyph-name="section" unicode="&#xa7;" 
d="M344 416q-35 0 -59 -24t-24 -58t24 -58t58 -24q16 0 31 6.5t26.5 18t18 26t6.5 31.5q0 16 -6.5 31t-17.5 26t-25.5 18t-31.5 7zM566 626h-157v4q0 14 -4 30t-16 31q-6 8 -19.5 13t-27.5 5q-26 0 -44.5 -16.5t-18.5 -42.5q0 -13 4 -23t16 -19.5t34.5 -20t58.5 -25.5
q51 -21 88.5 -41.5t61.5 -45t36 -55t12 -72.5q0 -31 -6.5 -56t-20 -47t-35.5 -42.5t-53 -41.5q46 -29 66 -62.5t20 -81.5q0 -42 -17 -78t-47 -63t-71 -42t-89 -15q-49 0 -90 15.5t-71 43t-46.5 67t-16.5 87.5v9h160v-8q0 -38 19 -60t51 -22q29 0 49.5 19t20.5 48q0 17 -5 30
t-18 24t-35 20.5t-56 19.5q-54 16 -92 35.5t-62.5 45.5t-35.5 59.5t-11 77.5q0 65 25 106.5t84 73.5q-45 32 -63 64.5t-18 79.5q0 40 15.5 74t43.5 58t67 37.5t86 13.5q108 0 168 -54.5t60 -148.5v-8z" />
    <glyph glyph-name="dieresis" unicode="&#xa8;" horiz-adv-x="565" 
d="M313 691q0 19 8 37t21.5 31t31 21t37.5 8t37.5 -8t31 -21.5t21.5 -31t8 -37.5t-8 -37.5t-21.5 -31t-31 -21.5t-37.5 -8t-38 7.5t-31.5 21t-21 31.5t-7.5 39zM57 691q0 20 7.5 37.5t21 31t31.5 21t38 7.5t38 -8t31 -21.5t20.5 -31t7.5 -37.5q0 -41 -28 -69.5t-69 -28.5
q-42 0 -70 28.5t-28 70.5z" />
    <glyph glyph-name="copyright" unicode="&#xa9;" horiz-adv-x="953" 
d="M605 587v-161l-13 15q-20 23 -45.5 34t-53.5 11q-49 0 -80 -31.5t-31 -80.5t31 -80t80 -31q28 0 52 11t47 33l13 12v-157l-18 -6q-29 -10 -53 -14t-47 -4q-51 0 -95.5 18.5t-78.5 50t-53.5 74.5t-19.5 93q0 49 19.5 92t53 75.5t78.5 51t95 18.5q28 0 58 -5.5t56 -16.5z
M75 374q0 83 31.5 156.5t86 128t127.5 86t156 31.5t156.5 -31.5t128 -86t86 -128t31.5 -156.5t-31.5 -156t-86 -127.5t-128 -86t-156.5 -31.5t-156 31.5t-127.5 86t-86 127.5t-31.5 156zM153 374q0 -67 25.5 -125.5t69.5 -102.5t102.5 -69.5t125.5 -25.5t125.5 25.5
t102.5 69.5t69.5 102.5t25.5 125.5t-25.5 125.5t-69.5 102.5t-102.5 69.5t-125.5 25.5t-125.5 -25.5t-102.5 -69.5t-69.5 -102.5t-25.5 -125.5z" />
    <glyph glyph-name="ordfeminine" unicode="&#xaa;" horiz-adv-x="410" 
d="M36 388h342v-68h-342v68zM134 595q0 -28 20 -48.5t49 -20.5t48.5 20.5t19.5 48.5q0 26 -19.5 47t-48.5 21q-28 0 -48.5 -20t-20.5 -48zM269 744h105v-299h-105v33q-34 -43 -93 -43q-32 0 -60 12.5t-48.5 34t-32 51t-11.5 62.5t11.5 62t32 50.5t48 34t59.5 12.5
q55 0 94 -39v29z" />
    <glyph glyph-name="guillemotleft" unicode="&#xab;" horiz-adv-x="601" 
d="M178 258l129 -174l-103 -72l-172 246l172 245l100 -68zM427 258l128 -174l-103 -72l-171 246l171 245l100 -68z" />
    <glyph glyph-name="logicalnot" unicode="&#xac;" horiz-adv-x="565" 
d="M319 0v149h-281v188h490v-337h-209z" />
    <glyph glyph-name="sfthyphen" unicode="&#xad;" horiz-adv-x="287" 
d="M0 343h287v-151h-287v151z" />
    <glyph glyph-name="registered" unicode="&#xae;" horiz-adv-x="953" 
d="M428 407h15q67 0 67 47q0 46 -67 46h-15v-93zM703 151h-171l-104 151v-151h-137v452h197q72 0 117 -38.5t45 -104.5q0 -99 -96 -127zM75 374q0 83 31.5 156.5t86 128t127.5 86t156 31.5t156.5 -31.5t128 -86t86 -128t31.5 -156.5t-31.5 -156t-86 -127.5t-128 -86
t-156.5 -31.5t-156 31.5t-127.5 86t-86 127.5t-31.5 156zM153 374q0 -67 25.5 -125.5t69.5 -102.5t102.5 -69.5t125.5 -25.5t125.5 25.5t102.5 69.5t69.5 102.5t25.5 125.5t-25.5 125.5t-69.5 102.5t-102.5 69.5t-125.5 25.5t-125.5 -25.5t-102.5 -69.5t-69.5 -102.5
t-25.5 -125.5z" />
    <glyph glyph-name="macron" unicode="&#xaf;" horiz-adv-x="565" 
d="M85 722h396v-111h-396v111z" />
    <glyph glyph-name="degree" unicode="&#xb0;" horiz-adv-x="679" 
d="M267 616q0 -31 21 -52t51 -21q29 0 50.5 20.5t21.5 51.5q0 30 -21.5 51t-50.5 21q-30 0 -51 -21t-21 -50zM188 616q0 30 12 57.5t33 47.5t48.5 32t57.5 12q31 0 59 -12t48 -32.5t32 -48t12 -57.5q0 -31 -11.5 -58.5t-32 -48t-48 -32.5t-59.5 -12t-59.5 12t-47.5 32.5
t-32 48t-12 59.5z" />
    <glyph glyph-name="plusminus" unicode="&#xb1;" 
d="M72 128h535v-128h-535v128zM72 490h204v204h128v-204h203v-128h-203v-181h-128v181h-204v128z" />
    <glyph glyph-name="two.superior" unicode="&#xb2;" horiz-adv-x="452" 
d="M154 426q118 124 118 187q0 23 -14 38.5t-34 15.5q-19 0 -31 -14t-12 -37q0 -5 0.5 -10t1.5 -13h-135q0 40 13 73.5t36 57t55.5 36.5t71.5 13t71 -12.5t55.5 -34t36 -52t12.5 -66.5q0 -37 -16.5 -72t-49.5 -66l-68 -63h139v-105h-369z" />
    <glyph glyph-name="three.superior" unicode="&#xb3;" horiz-adv-x="452" 
d="M201 583q5 0 9.5 -0.5t6.5 -0.5q21 0 33.5 12.5t12.5 32.5q0 18 -11.5 29.5t-30.5 11.5q-43 0 -43 -50h-115q18 153 168 153q33 0 60 -10t46.5 -27.5t30 -42t10.5 -52.5q0 -62 -42 -92q29 -11 48.5 -43t19.5 -71q0 -35 -14 -62.5t-38 -47.5t-56.5 -30.5t-69.5 -10.5
q-36 0 -70 12t-59.5 34.5t-41 53.5t-15.5 70h126q3 -62 60 -62q25 0 40.5 15.5t15.5 38.5t-17.5 39.5t-37.5 16.5q-11 0 -26 -4v87z" />
    <glyph glyph-name="acute" unicode="&#xb4;" horiz-adv-x="565" 
d="M457 742l-174 -154l-84 62l143 175z" />
    <glyph glyph-name="mu1" unicode="&#xb5;" horiz-adv-x="669" 
d="M243 513v-259q0 -67 16 -89q23 -32 68 -32q46 0 70.5 27.5t24.5 78.5v274h181v-513h-181v65q-14 -36 -42.5 -53.5t-62.5 -17.5q-40 0 -74 21v-271h-181v769h181z" />
    <glyph glyph-name="paragraph" unicode="&#xb6;" 
d="M210 -104v467h-14q-45 0 -82 14t-63.5 39.5t-40.5 61t-14 77.5q0 199 259 199h378v-111h-83v-747h-123v747h-94v-747h-123z" />
    <glyph glyph-name="periodcentered" unicode="&#xb7;" horiz-adv-x="340" 
d="M54 377q0 24 9 45.5t24.5 37.5t37 25t45.5 9t45.5 -9t37.5 -25t25 -37.5t9 -45.5t-9 -45.5t-25 -37t-37.5 -24.5t-45.5 -9t-45.5 9t-37 24.5t-24.5 37t-9 45.5z" />
    <glyph glyph-name="cedilla" unicode="&#xb8;" horiz-adv-x="565" 
d="M446 -124l-154 -146l-82 52l132 161z" />
    <glyph glyph-name="one.superior" unicode="&#xb9;" horiz-adv-x="452" 
d="M179 648h-64v106h186v-452h-122v346z" />
    <glyph glyph-name="ordmasculine" unicode="&#xba;" horiz-adv-x="409" 
d="M34 388h342v-68h-342v68zM136 595q0 -28 20 -48.5t49 -20.5t48.5 21t19.5 48q0 13 -5 25t-14 21.5t-21.5 15.5t-27.5 6q-30 0 -49.5 -21t-19.5 -47zM24 597q0 35 14 64t39 50t57.5 32.5t70.5 11.5t71 -12t57 -33t38 -50.5t14 -64.5q0 -36 -14 -66t-38 -51t-57.5 -32.5
t-72.5 -11.5q-40 0 -73 12t-56.5 34t-36.5 51.5t-13 65.5z" />
    <glyph glyph-name="guillemotright" unicode="&#xbb;" horiz-adv-x="601" 
d="M423 258l-126 177l100 68l172 -245l-172 -246l-103 72zM174 258l-126 177l100 68l172 -245l-172 -246l-103 72z" />
    <glyph glyph-name="onequarter" unicode="&#xbc;" horiz-adv-x="1101" 
d="M894 187v155l-95 -155h95zM1008 187h54v-96h-54v-91h-114v91h-216v79l173 282h157v-265zM720 754h98l-438 -754h-98zM179 648h-64v106h186v-452h-122v346z" />
    <glyph glyph-name="onehalf" unicode="&#xbd;" horiz-adv-x="1101" 
d="M802 125q118 122 118 186q0 23 -14 38.5t-34 15.5q-19 0 -31 -14t-12 -37q0 -3 0.5 -8.5t1.5 -13.5h-135q0 41 13 74t36.5 56.5t55.5 36t71 12.5q38 0 70 -12.5t55.5 -34t36.5 -51.5t13 -66q0 -76 -67 -139l-67 -63h139v-105h-369zM720 754h98l-438 -754h-98zM179 648
h-64v106h186v-452h-122v346z" />
    <glyph glyph-name="threequarters" unicode="&#xbe;" horiz-adv-x="1101" 
d="M894 187v155l-94 -155h94zM1008 187h54v-96h-54v-91h-114v91h-216v79l173 282h157v-265zM720 754h98l-437 -754h-98zM201 583q5 0 9.5 -0.5t6.5 -0.5q21 0 33.5 12.5t12.5 32.5q0 18 -11.5 29.5t-30.5 11.5q-43 0 -43 -50h-115q18 153 168 153q33 0 60 -10t46.5 -27.5
t30 -42t10.5 -52.5q0 -62 -42 -92q29 -11 48.5 -43t19.5 -71q0 -35 -14 -62.5t-38 -47.5t-56.5 -30.5t-69.5 -10.5q-36 0 -70 12t-59.5 34.5t-41 53.5t-15.5 70h126q3 -62 60 -62q25 0 40.5 15.5t15.5 38.5t-17.5 39.5t-37.5 16.5q-11 0 -26 -4v87z" />
    <glyph glyph-name="questiondown" unicode="&#xbf;" horiz-adv-x="617" 
d="M409 329v-195q-11 3 -21.5 4t-18.5 1q-27 0 -51 -7.5t-42 -21t-28 -31.5t-10 -40q0 -31 22 -52t52 -21q32 0 50 20.5t18 55.5h199q0 -51 -21 -93.5t-57 -74t-85.5 -49t-106.5 -17.5t-105.5 19.5t-83.5 52.5t-55 75.5t-20 88.5q0 149 181 213v72h183zM195 486q0 24 9 45.5
t25 37.5t37.5 25t45.5 9t45.5 -9t37.5 -25t25 -37.5t9 -45.5t-9 -45.5t-25 -37.5t-37.5 -25t-45.5 -9t-45.5 9t-37.5 25t-25 37.5t-9 45.5z" />
    <glyph glyph-name="Agrave" unicode="&#xc0;" horiz-adv-x="803" 
d="M489 280l-88 251l-88 -251h176zM541 131h-280l-45 -131h-209l287 754h214l287 -754h-209zM220 946l105 95l163 -156l-76 -71z" />
    <glyph glyph-name="Aacute" unicode="&#xc1;" horiz-adv-x="803" 
d="M489 280l-88 251l-88 -251h176zM541 131h-280l-45 -131h-209l287 754h214l287 -754h-209zM588 946l-192 -132l-76 71l163 156z" />
    <glyph glyph-name="Acircumflex" unicode="&#xc2;" horiz-adv-x="803" 
d="M489 280l-88 251l-88 -251h176zM541 131h-280l-45 -131h-209l287 754h214l287 -754h-209zM170 900l230 136l231 -136l-54 -86l-177 89l-175 -89z" />
    <glyph glyph-name="Atilde" unicode="&#xc3;" horiz-adv-x="803" 
d="M489 280l-88 251l-88 -251h176zM541 131h-280l-45 -131h-209l287 754h214l287 -754h-209zM182 833q0 74 34 117.5t87 43.5q21 0 47 -6.5t51.5 -14t47 -13.5t34.5 -6q32 0 43 41h99q-10 -90 -43.5 -126t-90.5 -36q-28 0 -55 6.5t-51 14t-43 14t-32 6.5q-11 0 -19 -8
t-15 -33h-94z" />
    <glyph glyph-name="Adieresis" unicode="&#xc4;" horiz-adv-x="803" 
d="M489 280l-88 251l-88 -251h176zM541 131h-280l-45 -131h-209l287 754h214l287 -754h-209zM439 925q0 19 7.5 36.5t21 31t31.5 21t38 7.5t37.5 -7.5t31 -20.5t21.5 -31t8 -38q0 -42 -28.5 -70t-69.5 -28q-42 0 -70 28.5t-28 70.5zM167 925q0 19 7.5 36.5t21 31t31.5 21
t38 7.5t37.5 -7.5t31 -20.5t21.5 -31t8 -38q0 -21 -8 -38.5t-21 -31t-31 -21t-37 -7.5q-43 0 -71 29t-28 70z" />
    <glyph glyph-name="Aring" unicode="&#xc5;" horiz-adv-x="803" 
d="M489 280l-88 251l-88 -251h176zM541 131h-280l-45 -131h-209l287 754h214l287 -754h-209zM343 929q0 -44 57 -44q59 0 59 43t-59 43q-26 0 -41.5 -11.5t-15.5 -30.5zM246 929q0 53 42 85q40 31 113 31t114.5 -31.5t41.5 -85.5q0 -55 -41.5 -86t-114.5 -31t-114 31t-41 87
z" />
    <glyph glyph-name="AE" unicode="&#xc6;" horiz-adv-x="1045" 
d="M481 281l-82 224l-84 -224h166zM533 133h-272l-47 -133h-207l291 754h461l61 -166h-248l47 -126h247l63 -166h-249l49 -130h248l60 -166h-454z" />
    <glyph glyph-name="Ccedilla" unicode="&#xc7;" horiz-adv-x="667" 
d="M622 502q-68 83 -168 83q-44 0 -81.5 -16t-64.5 -43.5t-42.5 -65.5t-15.5 -82q0 -45 15.5 -83t43 -66t64.5 -44t80 -16q94 0 169 80v-232l-20 -7q-45 -16 -84 -23.5t-77 -7.5q-78 0 -149.5 29.5t-126 83t-87.5 127t-33 160.5t32.5 159.5t87 125t126.5 82t151 29.5
q45 0 88.5 -9.5t91.5 -29.5v-234zM509 -130l-156 -152l-88 61l132 170z" />
    <glyph glyph-name="Egrave" unicode="&#xc8;" horiz-adv-x="570" 
d="M508 588h-233v-126h220v-166h-220v-130h233v-166h-429v754h429v-166zM135 946l105 95l163 -156l-76 -71z" />
    <glyph glyph-name="Eacute" unicode="&#xc9;" horiz-adv-x="570" 
d="M508 588h-233v-126h220v-166h-220v-130h233v-166h-429v754h429v-166zM471 946l-192 -132l-76 71l163 156z" />
    <glyph glyph-name="Ecircumflex" unicode="&#xca;" horiz-adv-x="571" 
d="M508 588h-233v-126h220v-166h-220v-130h233v-166h-429v754h429v-166zM63 900l230 136l231 -136l-54 -86l-177 89l-175 -89z" />
    <glyph glyph-name="Edieresis" unicode="&#xcb;" horiz-adv-x="571" 
d="M508 588h-233v-126h220v-166h-220v-130h233v-166h-429v754h429v-166zM330 925q0 19 7.5 36.5t21 31t31.5 21t38 7.5t37.5 -7.5t31 -20.5t21.5 -31t8 -38q0 -42 -28.5 -70t-69.5 -28q-42 0 -70 28.5t-28 70.5zM58 925q0 19 7.5 36.5t21 31t31.5 21t38 7.5t37.5 -7.5
t31 -20.5t21.5 -31t8 -38q0 -21 -8 -38.5t-21 -31t-31 -21t-37 -7.5q-43 0 -71 29t-28 70z" />
    <glyph glyph-name="Igrave" unicode="&#xcc;" horiz-adv-x="354" 
d="M275 754v-754h-196v754h196zM-6 946l105 95l163 -156l-76 -71z" />
    <glyph glyph-name="Iacute" unicode="&#xcd;" horiz-adv-x="354" 
d="M275 754v-754h-196v754h196zM360 946l-192 -132l-76 71l163 156z" />
    <glyph glyph-name="Icircumflex" unicode="&#xce;" horiz-adv-x="354" 
d="M275 754v-754h-196v754h196zM-38 900l215 136l215 -136l-54 -86l-161 89l-161 -89z" />
    <glyph glyph-name="Idieresis" unicode="&#xcf;" horiz-adv-x="354" 
d="M275 754v-754h-196v754h196zM197 923q0 41 28 69.5t69 28.5t69.5 -28.5t28.5 -69.5t-28.5 -69t-69.5 -28t-69 28t-28 69zM-37 923q0 41 28 69.5t69 28.5t69.5 -28.5t28.5 -69.5t-28.5 -69t-69.5 -28t-69 28t-28 69z" />
    <glyph glyph-name="Eth" unicode="&#xd0;" horiz-adv-x="786" 
d="M275 166h45q50 0 90 16t67.5 44t42.5 66.5t15 84.5q0 45 -15 84t-42.5 67t-67.5 44t-90 16h-45v-136h128v-128h-128v-158zM79 0v324h-68v128h68v302h290q75 0 142 -31t118 -82.5t81 -120t30 -143.5t-30 -143.5t-81 -120t-118 -82.5t-142 -31h-290z" />
    <glyph glyph-name="Ntilde" unicode="&#xd1;" horiz-adv-x="911" 
d="M79 0v754h196l362 -461v461h195v-754h-195l-362 461v-461h-196zM242 833q0 74 34 117.5t87 43.5q21 0 47 -6.5t51.5 -14t47 -13.5t34.5 -6q32 0 43 41h99q-10 -90 -43.5 -126t-90.5 -36q-28 0 -55 6.5t-51 14t-43 14t-32 6.5q-11 0 -19 -8t-15 -33h-94z" />
    <glyph glyph-name="Ograve" unicode="&#xd2;" horiz-adv-x="925" 
d="M250 377q0 -45 17 -83t46 -66t67.5 -43.5t81.5 -15.5t81.5 15.5t68 43.5t46.5 66t17 83t-17 83t-46.5 66t-68 43.5t-81.5 15.5t-81.5 -15.5t-67.5 -43.5t-46 -66t-17 -83zM45 377q0 84 31 156.5t86 126.5t131.5 84.5t168.5 30.5q91 0 168 -30.5t132.5 -84.5t86.5 -126.5
t31 -156.5t-31 -156.5t-86.5 -126.5t-132.5 -84.5t-168 -30.5q-92 0 -168.5 30.5t-131.5 84.5t-86 126.5t-31 156.5zM290 946l105 95l163 -156l-76 -71z" />
    <glyph glyph-name="Oacute" unicode="&#xd3;" horiz-adv-x="925" 
d="M250 377q0 -45 17 -83t46 -66t67.5 -43.5t81.5 -15.5t81.5 15.5t68 43.5t46.5 66t17 83t-17 83t-46.5 66t-68 43.5t-81.5 15.5t-81.5 -15.5t-67.5 -43.5t-46 -66t-17 -83zM45 377q0 84 31 156.5t86 126.5t131.5 84.5t168.5 30.5q91 0 168 -30.5t132.5 -84.5t86.5 -126.5
t31 -156.5t-31 -156.5t-86.5 -126.5t-132.5 -84.5t-168 -30.5q-92 0 -168.5 30.5t-131.5 84.5t-86 126.5t-31 156.5zM642 946l-192 -132l-76 71l163 156z" />
    <glyph glyph-name="Ocircumflex" unicode="&#xd4;" horiz-adv-x="925" 
d="M250 377q0 -45 17 -83t46 -66t67.5 -43.5t81.5 -15.5t81.5 15.5t68 43.5t46.5 66t17 83t-17 83t-46.5 66t-68 43.5t-81.5 15.5t-81.5 -15.5t-67.5 -43.5t-46 -66t-17 -83zM45 377q0 84 31 156.5t86 126.5t131.5 84.5t168.5 30.5q91 0 168 -30.5t132.5 -84.5t86.5 -126.5
t31 -156.5t-31 -156.5t-86.5 -126.5t-132.5 -84.5t-168 -30.5q-92 0 -168.5 30.5t-131.5 84.5t-86 126.5t-31 156.5zM231 900l230 136l231 -136l-54 -86l-177 89l-175 -89z" />
    <glyph glyph-name="Otilde" unicode="&#xd5;" horiz-adv-x="925" 
d="M250 377q0 -45 17 -83t46 -66t67.5 -43.5t81.5 -15.5t81.5 15.5t68 43.5t46.5 66t17 83t-17 83t-46.5 66t-68 43.5t-81.5 15.5t-81.5 -15.5t-67.5 -43.5t-46 -66t-17 -83zM45 377q0 84 31 156.5t86 126.5t131.5 84.5t168.5 30.5q91 0 168 -30.5t132.5 -84.5t86.5 -126.5
t31 -156.5t-31 -156.5t-86.5 -126.5t-132.5 -84.5t-168 -30.5q-92 0 -168.5 30.5t-131.5 84.5t-86 126.5t-31 156.5zM245 833q0 74 34 117.5t87 43.5q21 0 47 -6.5t51.5 -14t47 -13.5t34.5 -6q32 0 43 41h99q-10 -90 -43.5 -126t-90.5 -36q-28 0 -55 6.5t-51 14t-43 14
t-32 6.5q-11 0 -19 -8t-15 -33h-94z" />
    <glyph glyph-name="Odieresis" unicode="&#xd6;" horiz-adv-x="925" 
d="M250 377q0 -45 17 -83t46 -66t67.5 -43.5t81.5 -15.5t81.5 15.5t68 43.5t46.5 66t17 83t-17 83t-46.5 66t-68 43.5t-81.5 15.5t-81.5 -15.5t-67.5 -43.5t-46 -66t-17 -83zM45 377q0 84 31 156.5t86 126.5t131.5 84.5t168.5 30.5q91 0 168 -30.5t132.5 -84.5t86.5 -126.5
t31 -156.5t-31 -156.5t-86.5 -126.5t-132.5 -84.5t-168 -30.5q-92 0 -168.5 30.5t-131.5 84.5t-86 126.5t-31 156.5zM501 925q0 19 7.5 36.5t21 31t31.5 21t38 7.5t37.5 -7.5t31 -20.5t21.5 -31t8 -38q0 -42 -28.5 -70t-69.5 -28q-42 0 -70 28.5t-28 70.5zM229 925
q0 19 7.5 36.5t21 31t31.5 21t38 7.5t37.5 -7.5t31 -20.5t21.5 -31t8 -38q0 -21 -8 -38.5t-21 -31t-31 -21t-37 -7.5q-43 0 -71 29t-28 70z" />
    <glyph glyph-name="multiply" unicode="&#xd7;" 
d="M196 611l144 -143l144 143l91 -90l-144 -144l144 -144l-91 -90l-144 143l-144 -143l-91 90l145 144l-145 144z" />
    <glyph glyph-name="Oslash" unicode="&#xd8;" horiz-adv-x="925" 
d="M45 377q0 84 31 156.5t86 126.5t131.5 84.5t168.5 30.5q75 0 139 -20.5t116 -57.5l98 92l78 -82l-94 -89q38 -50 59.5 -111t21.5 -130q0 -84 -31 -156.5t-86.5 -126.5t-132.5 -84.5t-168 -30.5q-75 0 -140 20.5t-117 58.5l-97 -92l-78 81l94 89q-38 51 -58.5 111.5
t-20.5 129.5zM675 377q0 28 -7 53t-19 47l-296 -279q49 -29 109 -29q43 0 81.5 15.5t68 43.5t46.5 66t17 83zM250 377q0 -28 6.5 -52.5t17.5 -46.5l295 279q-50 28 -107 28q-43 0 -81.5 -15.5t-67.5 -43.5t-46 -66t-17 -83z" />
    <glyph glyph-name="Ugrave" unicode="&#xd9;" horiz-adv-x="816" 
d="M275 754v-410q0 -33 2.5 -67.5t15 -62.5t39.5 -45.5t76 -17.5t75.5 17.5t39.5 45.5t15.5 62.5t2.5 67.5v410h195v-437q0 -176 -80.5 -257t-247.5 -81t-248 81t-81 257v437h196zM219 946l105 95l163 -156l-76 -71z" />
    <glyph glyph-name="Uacute" unicode="&#xda;" horiz-adv-x="816" 
d="M275 754v-410q0 -33 2.5 -67.5t15 -62.5t39.5 -45.5t76 -17.5t75.5 17.5t39.5 45.5t15.5 62.5t2.5 67.5v410h195v-437q0 -176 -80.5 -257t-247.5 -81t-248 81t-81 257v437h196zM595 946l-192 -132l-76 71l163 156z" />
    <glyph glyph-name="Ucircumflex" unicode="&#xdb;" horiz-adv-x="816" 
d="M275 754v-410q0 -33 2.5 -67.5t15 -62.5t39.5 -45.5t76 -17.5t75.5 17.5t39.5 45.5t15.5 62.5t2.5 67.5v410h195v-437q0 -176 -80.5 -257t-247.5 -81t-248 81t-81 257v437h196zM177 900l230 136l231 -136l-54 -86l-177 89l-175 -89z" />
    <glyph glyph-name="Udieresis" unicode="&#xdc;" horiz-adv-x="816" 
d="M275 754v-410q0 -33 2.5 -67.5t15 -62.5t39.5 -45.5t76 -17.5t75.5 17.5t39.5 45.5t15.5 62.5t2.5 67.5v410h195v-437q0 -176 -80.5 -257t-247.5 -81t-248 81t-81 257v437h196zM445 925q0 19 7.5 36.5t21 31t31.5 21t38 7.5t37.5 -7.5t31 -20.5t21.5 -31t8 -38
q0 -42 -28.5 -70t-69.5 -28q-42 0 -70 28.5t-28 70.5zM173 925q0 19 7.5 36.5t21 31t31.5 21t38 7.5t37.5 -7.5t31 -20.5t21.5 -31t8 -38q0 -21 -8 -38.5t-21 -31t-31 -21t-37 -7.5q-43 0 -71 29t-28 70z" />
    <glyph glyph-name="Yacute" unicode="&#xdd;" horiz-adv-x="724" 
d="M555 946l-192 -132l-76 71l163 156zM261 362l-275 392h234l140 -206l139 206h234l-276 -392v-362h-196v362z" />
    <glyph glyph-name="Thorn" unicode="&#xde;" horiz-adv-x="678" 
d="M275 302h65q57 0 82.5 22.5t25.5 71.5q0 95 -107 95h-66v-189zM275 145v-145h-196v754h196v-106h123q124 0 189.5 -63t65.5 -187t-65.5 -188.5t-189.5 -64.5h-123z" />
    <glyph glyph-name="germandbls" unicode="&#xdf;" horiz-adv-x="672" 
d="M62 0v605q0 118 65.5 179t192.5 61q57 0 103.5 -16t79 -45.5t50 -71t17.5 -92.5q0 -88 -89 -156q42 -20 70.5 -40.5t46 -46t25 -57t7.5 -72.5q0 -60 -17.5 -109t-54 -83.5t-92.5 -53t-132 -18.5h-38v154q63 0 99 32t36 88q0 58 -36 92.5t-99 34.5v144q100 0 100 82
q0 35 -20.5 56t-55.5 21q-77 0 -77 -91v-597h-181z" />
    <glyph glyph-name="agrave" unicode="&#xe0;" horiz-adv-x="701" 
d="M230 258q0 -25 9 -46.5t24.5 -37.5t37 -25t46.5 -9q24 0 45.5 9t37 25t25 37t9.5 45t-9.5 45.5t-25 37.5t-37 25t-45.5 9q-25 0 -46.5 -9t-37 -25t-24.5 -36.5t-9 -44.5zM458 513h182v-513h-182v57q-58 -73 -157 -73q-56 0 -103 20.5t-82 57.5t-54.5 87t-19.5 109
q0 55 19 104.5t53 86.5t81 58.5t104 21.5q96 0 159 -67v51zM192 742l115 83l143 -175l-84 -62z" />
    <glyph glyph-name="aacute" unicode="&#xe1;" horiz-adv-x="701" 
d="M230 258q0 -25 9 -46.5t24.5 -37.5t37 -25t46.5 -9q24 0 45.5 9t37 25t25 37t9.5 45t-9.5 45.5t-25 37.5t-37 25t-45.5 9q-25 0 -46.5 -9t-37 -25t-24.5 -36.5t-9 -44.5zM458 513h182v-513h-182v57q-58 -73 -157 -73q-56 0 -103 20.5t-82 57.5t-54.5 87t-19.5 109
q0 55 19 104.5t53 86.5t81 58.5t104 21.5q96 0 159 -67v51zM525 742l-174 -154l-84 62l143 175z" />
    <glyph glyph-name="acircumflex" unicode="&#xe2;" horiz-adv-x="701" 
d="M230 258q0 -25 9 -46.5t24.5 -37.5t37 -25t46.5 -9q24 0 45.5 9t37 25t25 37t9.5 45t-9.5 45.5t-25 37.5t-37 25t-45.5 9q-25 0 -46.5 -9t-37 -25t-24.5 -36.5t-9 -44.5zM458 513h182v-513h-182v57q-58 -73 -157 -73q-56 0 -103 20.5t-82 57.5t-54.5 87t-19.5 109
q0 55 19 104.5t53 86.5t81 58.5t104 21.5q96 0 159 -67v51zM135 676l221 166l224 -166l-80 -88l-144 112l-144 -112z" />
    <glyph glyph-name="atilde" unicode="&#xe3;" horiz-adv-x="701" 
d="M230 258q0 -25 9 -46.5t24.5 -37.5t37 -25t46.5 -9q24 0 45.5 9t37 25t25 37t9.5 45t-9.5 45.5t-25 37.5t-37 25t-45.5 9q-25 0 -46.5 -9t-37 -25t-24.5 -36.5t-9 -44.5zM458 513h182v-513h-182v57q-58 -73 -157 -73q-56 0 -103 20.5t-82 57.5t-54.5 87t-19.5 109
q0 55 19 104.5t53 86.5t81 58.5t104 21.5q96 0 159 -67v51zM165 593v11q0 31 8 58t23 46.5t35 31t44 11.5q11 0 36.5 -6.5t63.5 -20.5q23 -8 38.5 -12.5t26.5 -4.5q18 0 24.5 9t13.5 35h89q-9 -85 -36 -121.5t-78 -36.5q-21 0 -45.5 6t-53.5 17l-41 15q-12 5 -26 5
q-18 0 -25 -8.5t-12 -34.5h-85z" />
    <glyph glyph-name="adieresis" unicode="&#xe4;" horiz-adv-x="701" 
d="M230 258q0 -25 9 -46.5t24.5 -37.5t37 -25t46.5 -9q24 0 45.5 9t37 25t25 37t9.5 45t-9.5 45.5t-25 37.5t-37 25t-45.5 9q-25 0 -46.5 -9t-37 -25t-24.5 -36.5t-9 -44.5zM458 513h182v-513h-182v57q-58 -73 -157 -73q-56 0 -103 20.5t-82 57.5t-54.5 87t-19.5 109
q0 55 19 104.5t53 86.5t81 58.5t104 21.5q96 0 159 -67v51zM390 691q0 19 8 37t21.5 31t31 21t37.5 8t37.5 -8t31 -21.5t21.5 -31t8 -37.5t-8 -37.5t-21.5 -31t-31 -21.5t-37.5 -8t-38 7.5t-31.5 21t-21 31.5t-7.5 39zM134 691q0 20 7.5 37.5t21 31t31.5 21t38 7.5t38 -8
t31 -21.5t20.5 -31t7.5 -37.5q0 -41 -28 -69.5t-69 -28.5q-42 0 -70 28.5t-28 70.5z" />
    <glyph glyph-name="aring" unicode="&#xe5;" horiz-adv-x="701" 
d="M230 258q0 -25 9 -46.5t24.5 -37.5t37 -25t46.5 -9q24 0 45.5 9t37 25t25 37t9.5 45t-9.5 45.5t-25 37.5t-37 25t-45.5 9q-25 0 -46.5 -9t-37 -25t-24.5 -36.5t-9 -44.5zM458 513h182v-513h-182v57q-58 -73 -157 -73q-56 0 -103 20.5t-82 57.5t-54.5 87t-19.5 109
q0 55 19 104.5t53 86.5t81 58.5t104 21.5q96 0 159 -67v51zM298 710q0 -46 59 -46q61 0 61 45t-61 45q-27 0 -43 -12t-16 -32zM202 710q0 54 41.5 85t114.5 31q75 0 115 -31.5t40 -85.5t-40 -85.5t-115 -31.5q-74 0 -115 31t-41 87z" />
    <glyph glyph-name="ae" unicode="&#xe6;" horiz-adv-x="981" 
d="M219 164q0 -26 22 -42t59 -16q36 0 64 16.5t28 40.5q0 23 -28.5 39t-67.5 16q-35 0 -56 -14.5t-21 -39.5zM771 332q-24 84 -105 84q-77 0 -104 -84h209zM557 227q0 -52 31.5 -84.5t84.5 -32.5q62 0 83 48h176q-24 -82 -93 -128.5t-172 -46.5q-154 0 -203 100
q-80 -97 -210 -97q-47 0 -86 11.5t-67 33t-43.5 52t-15.5 68.5q0 39 15.5 70.5t43 53.5t67 33.5t87.5 11.5q63 0 132 -27v14q0 92 -124 92q-48 0 -141 -29v137q82 24 151 24q71 0 115 -21.5t76 -69.5q64 91 196 91q137 0 208.5 -77.5t71.5 -226.5h-383z" />
    <glyph glyph-name="ccedilla" unicode="&#xe7;" horiz-adv-x="490" 
d="M449 347q-47 32 -95 32q-26 0 -48.5 -9t-39.5 -25.5t-26.5 -39t-9.5 -50.5q0 -27 9.5 -49.5t26 -39t39.5 -25.5t49 -9q51 0 95 35v-154q-67 -29 -127 -29q-56 0 -106.5 19t-89 54.5t-61.5 85t-23 110.5t22 111.5t60 87t90.5 57t112.5 20.5q66 0 122 -28v-154zM394 -124
l-154 -146l-82 52l132 161z" />
    <glyph glyph-name="egrave" unicode="&#xe8;" horiz-adv-x="647" 
d="M437 331q-9 38 -37 61t-68 23q-42 0 -68.5 -22t-33.5 -62h207zM225 226q0 -117 110 -117q59 0 89 48h175q-53 -176 -265 -176q-65 0 -119 19.5t-92.5 55.5t-59.5 86t-21 112q0 64 20 115.5t57 87.5t89.5 55.5t118.5 19.5q65 0 117 -19.5t88 -56.5t55 -90.5t19 -120.5v-19
h-381zM165 742l115 83l143 -175l-84 -62z" />
    <glyph glyph-name="eacute" unicode="&#xe9;" horiz-adv-x="647" 
d="M437 331q-9 38 -37 61t-68 23q-42 0 -68.5 -22t-33.5 -62h207zM225 226q0 -117 110 -117q59 0 89 48h175q-53 -176 -265 -176q-65 0 -119 19.5t-92.5 55.5t-59.5 86t-21 112q0 64 20 115.5t57 87.5t89.5 55.5t118.5 19.5q65 0 117 -19.5t88 -56.5t55 -90.5t19 -120.5v-19
h-381zM498 742l-174 -154l-84 62l143 175z" />
    <glyph glyph-name="ecircumflex" unicode="&#xea;" horiz-adv-x="647" 
d="M437 331q-9 38 -37 61t-68 23q-42 0 -68.5 -22t-33.5 -62h207zM225 226q0 -117 110 -117q59 0 89 48h175q-53 -176 -265 -176q-65 0 -119 19.5t-92.5 55.5t-59.5 86t-21 112q0 64 20 115.5t57 87.5t89.5 55.5t118.5 19.5q65 0 117 -19.5t88 -56.5t55 -90.5t19 -120.5v-19
h-381zM104 676l221 166l224 -166l-80 -88l-144 112l-144 -112z" />
    <glyph glyph-name="edieresis" unicode="&#xeb;" horiz-adv-x="647" 
d="M437 331q-9 38 -37 61t-68 23q-42 0 -68.5 -22t-33.5 -62h207zM225 226q0 -117 110 -117q59 0 89 48h175q-53 -176 -265 -176q-65 0 -119 19.5t-92.5 55.5t-59.5 86t-21 112q0 64 20 115.5t57 87.5t89.5 55.5t118.5 19.5q65 0 117 -19.5t88 -56.5t55 -90.5t19 -120.5v-19
h-381zM354 691q0 19 8 37t21.5 31t31 21t37.5 8t37.5 -8t31 -21.5t21.5 -31t8 -37.5t-8 -37.5t-21.5 -31t-31 -21.5t-37.5 -8t-38 7.5t-31.5 21t-21 31.5t-7.5 39zM98 691q0 20 7.5 37.5t21 31t31.5 21t38 7.5t38 -8t31 -21.5t20.5 -31t7.5 -37.5q0 -41 -28 -69.5t-69 -28.5
q-42 0 -70 28.5t-28 70.5z" />
    <glyph glyph-name="igrave" unicode="&#xec;" horiz-adv-x="305" 
d="M243 513v-513h-181v513h181zM-21 742l115 83l143 -175l-84 -62z" />
    <glyph glyph-name="iacute" unicode="&#xed;" horiz-adv-x="305" 
d="M243 513v-513h-181v513h181zM327 742l-174 -154l-84 62l143 175z" />
    <glyph glyph-name="icircumflex" unicode="&#xee;" horiz-adv-x="305" 
d="M243 513v-513h-181v513h181zM-47 676l199 166l200 -166l-80 -88l-120 112l-123 -112z" />
    <glyph glyph-name="idieresis" unicode="&#xef;" horiz-adv-x="305" 
d="M243 513v-513h-181v513h181zM171 691q0 19 8 37t21.5 31t31 21t37.5 8t37.5 -8t31 -21.5t21.5 -31t8 -37.5t-8 -37.5t-21 -31t-31 -21.5t-37 -8q-42 0 -70.5 28.5t-28.5 70.5zM-62 691q0 19 8 37t21.5 31t31 21t37.5 8q19 0 37 -8t31 -21.5t21 -31.5t8 -37
q0 -20 -8 -37.5t-21 -31t-31 -21.5t-37 -8q-20 0 -37.5 7.5t-31 21t-21.5 31.5t-8 39z" />
    <glyph glyph-name="eth" unicode="&#xf0;" horiz-adv-x="700" 
d="M233 259q0 -26 9.5 -47.5t25 -37.5t37 -25t45.5 -9t45.5 9t37 25t25 37.5t9.5 46.5q0 24 -9.5 45.5t-25 37.5t-37 25t-45.5 9t-45.5 -9t-37 -25t-25 -37t-9.5 -45zM448 830l57 -94l-78 -49q231 -201 231 -419q0 -64 -23 -116.5t-63.5 -90t-97 -58t-123.5 -20.5
q-68 0 -124.5 20t-97.5 56.5t-64 87t-23 110.5q0 61 22.5 111.5t63.5 86.5t97.5 56t124.5 20q-15 20 -30.5 36.5t-32.5 31.5l-99 -63l-55 90l68 44q-14 9 -30.5 18.5t-37.5 20.5l72 124q38 -18 70.5 -36.5t58.5 -39.5z" />
    <glyph glyph-name="ntilde" unicode="&#xf1;" horiz-adv-x="664" 
d="M62 513h181v-65q37 45 75 60.5t89 15.5q54 0 92.5 -17.5t65.5 -49.5q22 -26 30 -58t8 -73v-326h-181v259q0 38 -5.5 61.5t-19.5 37.5q-12 12 -27 17t-32 5q-46 0 -70.5 -27.5t-24.5 -78.5v-274h-181v513zM131 593v11q0 31 8 58t23 46.5t35 31t44 11.5q11 0 36.5 -6.5
t63.5 -20.5q23 -8 38.5 -12.5t26.5 -4.5q18 0 24.5 9t13.5 35h89q-9 -85 -36 -121.5t-78 -36.5q-21 0 -45.5 6t-53.5 17l-41 15q-12 5 -26 5q-18 0 -25 -8.5t-12 -34.5h-85z" />
    <glyph glyph-name="ograve" unicode="&#xf2;" horiz-adv-x="700" 
d="M233 259q0 -26 9.5 -47.5t25 -37.5t37 -25t45.5 -9t45.5 9t37 25t25 37.5t9.5 46.5q0 24 -9.5 45.5t-25 37.5t-37 25t-45.5 9t-45.5 -9t-37 -25t-25 -37t-9.5 -45zM42 261q0 57 23 106.5t64 86t97.5 57.5t123.5 21q66 0 122.5 -20.5t98 -57t64.5 -87t23 -111.5
t-23.5 -111.5t-64.5 -87t-98.5 -56.5t-124.5 -20q-66 0 -122 20t-96.5 57t-63.5 88.5t-23 114.5zM184 742l115 83l143 -175l-84 -62z" />
    <glyph glyph-name="oacute" unicode="&#xf3;" horiz-adv-x="700" 
d="M233 259q0 -26 9.5 -47.5t25 -37.5t37 -25t45.5 -9t45.5 9t37 25t25 37.5t9.5 46.5q0 24 -9.5 45.5t-25 37.5t-37 25t-45.5 9t-45.5 -9t-37 -25t-25 -37t-9.5 -45zM42 261q0 57 23 106.5t64 86t97.5 57.5t123.5 21q66 0 122.5 -20.5t98 -57t64.5 -87t23 -111.5
t-23.5 -111.5t-64.5 -87t-98.5 -56.5t-124.5 -20q-66 0 -122 20t-96.5 57t-63.5 88.5t-23 114.5zM517 742l-174 -154l-84 62l143 175z" />
    <glyph glyph-name="ocircumflex" unicode="&#xf4;" horiz-adv-x="700" 
d="M233 259q0 -26 9.5 -47.5t25 -37.5t37 -25t45.5 -9t45.5 9t37 25t25 37.5t9.5 46.5q0 24 -9.5 45.5t-25 37.5t-37 25t-45.5 9t-45.5 -9t-37 -25t-25 -37t-9.5 -45zM42 261q0 57 23 106.5t64 86t97.5 57.5t123.5 21q66 0 122.5 -20.5t98 -57t64.5 -87t23 -111.5
t-23.5 -111.5t-64.5 -87t-98.5 -56.5t-124.5 -20q-66 0 -122 20t-96.5 57t-63.5 88.5t-23 114.5zM127 676l221 166l224 -166l-80 -88l-144 112l-144 -112z" />
    <glyph glyph-name="otilde" unicode="&#xf5;" horiz-adv-x="700" 
d="M233 259q0 -26 9.5 -47.5t25 -37.5t37 -25t45.5 -9t45.5 9t37 25t25 37.5t9.5 46.5q0 24 -9.5 45.5t-25 37.5t-37 25t-45.5 9t-45.5 -9t-37 -25t-25 -37t-9.5 -45zM42 261q0 57 23 106.5t64 86t97.5 57.5t123.5 21q66 0 122.5 -20.5t98 -57t64.5 -87t23 -111.5
t-23.5 -111.5t-64.5 -87t-98.5 -56.5t-124.5 -20q-66 0 -122 20t-96.5 57t-63.5 88.5t-23 114.5zM157 593v11q0 31 8 58t23 46.5t35 31t44 11.5q11 0 36.5 -6.5t63.5 -20.5q23 -8 38.5 -12.5t26.5 -4.5q18 0 24.5 9t13.5 35h89q-9 -85 -36 -121.5t-78 -36.5q-21 0 -45.5 6
t-53.5 17l-41 15q-12 5 -26 5q-18 0 -25 -8.5t-12 -34.5h-85z" />
    <glyph glyph-name="odieresis" unicode="&#xf6;" horiz-adv-x="700" 
d="M233 259q0 -26 9.5 -47.5t25 -37.5t37 -25t45.5 -9t45.5 9t37 25t25 37.5t9.5 46.5q0 24 -9.5 45.5t-25 37.5t-37 25t-45.5 9t-45.5 -9t-37 -25t-25 -37t-9.5 -45zM42 261q0 57 23 106.5t64 86t97.5 57.5t123.5 21q66 0 122.5 -20.5t98 -57t64.5 -87t23 -111.5
t-23.5 -111.5t-64.5 -87t-98.5 -56.5t-124.5 -20q-66 0 -122 20t-96.5 57t-63.5 88.5t-23 114.5zM380 691q0 19 8 37t21.5 31t31 21t37.5 8t37.5 -8t31 -21.5t21.5 -31t8 -37.5t-8 -37.5t-21.5 -31t-31 -21.5t-37.5 -8t-38 7.5t-31.5 21t-21 31.5t-7.5 39zM124 691
q0 20 7.5 37.5t21 31t31.5 21t38 7.5t38 -8t31 -21.5t20.5 -31t7.5 -37.5q0 -41 -28 -69.5t-69 -28.5q-42 0 -70 28.5t-28 70.5z" />
    <glyph glyph-name="divide" unicode="&#xf7;" 
d="M259 574q0 32 23.5 55t55.5 23q33 0 56 -23t23 -56q0 -32 -22.5 -55.5t-56.5 -23.5q-33 0 -56 23.5t-23 56.5zM259 182q0 15 6.5 29.5t17 25t25 17t30.5 6.5q33 0 56 -23.5t23 -55.5t-22.5 -55.5t-56.5 -23.5q-33 0 -56 23.5t-23 56.5zM72 441h535v-128h-535v128z" />
    <glyph glyph-name="oslash" unicode="&#xf8;" horiz-adv-x="700" 
d="M289 159q26 -19 60 -19q25 0 47 9.5t38 25t25.5 36.5t9.5 45q0 18 -9 42zM417 354q-16 11 -31 16t-31 5q-25 0 -47.5 -9t-39.5 -24.5t-27 -36.5t-10 -46q0 -19 11 -49zM15 41l76 58q-49 75 -49 160q0 55 20.5 104.5t60.5 87t98.5 59.5t133.5 22q106 0 197 -58l85 67
l53 -67l-76 -65q44 -67 44 -142q0 -65 -21 -117.5t-61 -90t-98 -58t-132 -20.5q-123 0 -194 59l-84 -64z" />
    <glyph glyph-name="ugrave" unicode="&#xf9;" horiz-adv-x="669" 
d="M243 513v-289q0 -95 92 -95t92 95v289h181v-324q0 -104 -68.5 -156t-204.5 -52t-204.5 52t-68.5 156v324h181zM161 742l115 83l143 -175l-84 -62z" />
    <glyph glyph-name="uacute" unicode="&#xfa;" horiz-adv-x="669" 
d="M243 513v-289q0 -95 92 -95t92 95v289h181v-324q0 -104 -68.5 -156t-204.5 -52t-204.5 52t-68.5 156v324h181zM509 742l-174 -154l-84 62l143 175z" />
    <glyph glyph-name="ucircumflex" unicode="&#xfb;" horiz-adv-x="669" 
d="M243 513v-289q0 -95 92 -95t92 95v289h181v-324q0 -104 -68.5 -156t-204.5 -52t-204.5 52t-68.5 156v324h181zM112 676l221 166l224 -166l-80 -88l-144 112l-144 -112z" />
    <glyph glyph-name="udieresis" unicode="&#xfc;" horiz-adv-x="669" 
d="M243 513v-289q0 -95 92 -95t92 95v289h181v-324q0 -104 -68.5 -156t-204.5 -52t-204.5 52t-68.5 156v324h181zM365 691q0 19 8 37t21.5 31t31 21t37.5 8t37.5 -8t31 -21.5t21.5 -31t8 -37.5t-8 -37.5t-21.5 -31t-31 -21.5t-37.5 -8t-38 7.5t-31.5 21t-21 31.5t-7.5 39z
M109 691q0 20 7.5 37.5t21 31t31.5 21t38 7.5t38 -8t31 -21.5t20.5 -31t7.5 -37.5q0 -41 -28 -69.5t-69 -28.5q-42 0 -70 28.5t-28 70.5z" />
    <glyph glyph-name="yacute" unicode="&#xfd;" horiz-adv-x="688" 
d="M248 70l-248 443h210l137 -263l133 263h208l-412 -769h-203zM526 742l-174 -154l-84 62l143 175z" />
    <glyph glyph-name="thorn" unicode="&#xfe;" horiz-adv-x="701" 
d="M471 255q0 25 -9.5 47t-25.5 38t-37 25t-45 9q-23 0 -44 -9.5t-37 -25.5t-25.5 -37t-9.5 -45t9.5 -45.5t25 -37.5t37 -25.5t45.5 -9.5q23 0 44 9.5t37 25.5t25.5 37t9.5 44zM243 -256h-181v1086h181v-374q59 74 159 74q52 0 99 -20t82 -56.5t56 -87t21 -111.5
q0 -59 -20 -108.5t-55 -86t-81.5 -57t-99.5 -20.5q-95 0 -161 67v-306z" />
    <glyph glyph-name="ydieresis" unicode="&#xff;" horiz-adv-x="688" 
d="M248 70l-248 443h210l137 -263l133 263h208l-412 -769h-203zM374 691q0 19 8 37t21.5 31t31 21t37.5 8t37.5 -8t31 -21.5t21.5 -31t8 -37.5t-8 -37.5t-21.5 -31t-31 -21.5t-37.5 -8t-38 7.5t-31.5 21t-21 31.5t-7.5 39zM118 691q0 20 7.5 37.5t21 31t31.5 21t38 7.5
t38 -8t31 -21.5t20.5 -31t7.5 -37.5q0 -41 -28 -69.5t-69 -28.5q-42 0 -70 28.5t-28 70.5z" />
    <glyph glyph-name="Amacron" unicode="&#x100;" horiz-adv-x="803" 
d="M489 280l-88 251l-88 -251h176zM541 131h-280l-45 -131h-209l287 754h214l287 -754h-209zM203 983h396v-111h-396v111z" />
    <glyph glyph-name="amacron" unicode="&#x101;" horiz-adv-x="701" 
d="M230 258q0 -25 9 -46.5t24.5 -37.5t37 -25t46.5 -9q24 0 45.5 9t37 25t25 37t9.5 45t-9.5 45.5t-25 37.5t-37 25t-45.5 9q-25 0 -46.5 -9t-37 -25t-24.5 -36.5t-9 -44.5zM458 513h182v-513h-182v57q-58 -73 -157 -73q-56 0 -103 20.5t-82 57.5t-54.5 87t-19.5 109
q0 55 19 104.5t53 86.5t81 58.5t104 21.5q96 0 159 -67v51zM168 722h396v-111h-396v111z" />
    <glyph glyph-name="Abreve" unicode="&#x102;" horiz-adv-x="803" 
d="M489 280l-88 251l-88 -251h176zM541 131h-280l-45 -131h-209l287 754h214l287 -754h-209zM313 1000q15 -67 88 -67q74 0 89 67h127q-4 -81 -62 -128q-55 -46 -154 -46q-96 0 -154 46q-56 46 -61 128h127z" />
    <glyph glyph-name="abreve" unicode="&#x103;" horiz-adv-x="701" 
d="M230 258q0 -25 9 -46.5t24.5 -37.5t37 -25t46.5 -9q24 0 45.5 9t37 25t25 37t9.5 45t-9.5 45.5t-25 37.5t-37 25t-45.5 9q-25 0 -46.5 -9t-37 -25t-24.5 -36.5t-9 -44.5zM458 513h182v-513h-182v57q-58 -73 -157 -73q-56 0 -103 20.5t-82 57.5t-54.5 87t-19.5 109
q0 55 19 104.5t53 86.5t81 58.5t104 21.5q96 0 159 -67v51zM550 785q-9 -189 -197 -189q-189 0 -198 189h116q10 -82 82 -82q70 0 82 82h115z" />
    <glyph glyph-name="Aogonek" unicode="&#x104;" horiz-adv-x="803" 
d="M541 131h-280l-45 -131h-209l287 754h214l287 -754h-86q-46 0 -75.5 -21.5t-29.5 -53.5q0 -23 14 -34.5t28 -11.5q13 0 34 8t40 20l-40 -105q-17 -10 -37 -15t-40 -5q-46 0 -74.5 26.5t-28.5 67.5q0 33 21.5 65.5t63.5 58.5zM489 280l-88 251l-88 -251h176z" />
    <glyph glyph-name="aogonek" unicode="&#x105;" horiz-adv-x="701" 
d="M458 57q-58 -73 -157 -73q-56 0 -103 21t-82 57.5t-54.5 86t-19.5 107.5q0 57 19 106.5t53 86.5t81 58.5t104 21.5q96 0 159 -67v51h182v-513q-49 0 -81 -7.5t-50.5 -19t-25.5 -25.5t-7 -27q0 -23 15 -32.5t29 -9.5q11 0 33.5 7.5t39.5 22.5l-40 -107q-17 -10 -37 -15
t-40 -5q-46 0 -75 26t-29 67q0 34 21.5 66t64.5 59v57zM230 257q0 -24 9 -45.5t24.5 -37t37 -25t45.5 -9.5t45.5 9t37.5 25t25.5 37t9.5 45t-9.5 45.5t-25.5 37.5t-37.5 25t-45.5 9t-45.5 -9t-37 -25t-24.5 -37t-9 -45z" />
    <glyph glyph-name="Cacute" unicode="&#x106;" horiz-adv-x="667" 
d="M622 502q-68 83 -168 83q-44 0 -81.5 -16t-64.5 -43.5t-42.5 -65.5t-15.5 -82q0 -45 15.5 -83t43 -66t64.5 -44t80 -16q94 0 169 80v-232l-20 -7q-45 -16 -84 -23.5t-77 -7.5q-78 0 -149.5 29.5t-126 83t-87.5 127t-33 160.5t32.5 159.5t87 125t126.5 82t151 29.5
q45 0 88.5 -9.5t91.5 -29.5v-234zM613 946l-192 -132l-76 71l163 156z" />
    <glyph glyph-name="cacute" unicode="&#x107;" horiz-adv-x="490" 
d="M449 347q-47 32 -95 32q-26 0 -48.5 -9t-39.5 -25.5t-26.5 -39t-9.5 -50.5q0 -27 9.5 -49.5t26 -39t39.5 -25.5t49 -9q51 0 95 35v-154q-67 -29 -127 -29q-56 0 -106.5 19t-89 54.5t-61.5 85t-23 110.5t22 111.5t60 87t90.5 57t112.5 20.5q66 0 122 -28v-154zM481 742
l-174 -154l-84 62l143 175z" />
    <glyph glyph-name="Ccaron" unicode="&#x10c;" horiz-adv-x="667" 
d="M622 502q-68 83 -168 83q-44 0 -81.5 -16t-64.5 -43.5t-42.5 -65.5t-15.5 -82q0 -45 15.5 -83t43 -66t64.5 -44t80 -16q94 0 169 80v-232l-20 -7q-45 -16 -84 -23.5t-77 -7.5q-78 0 -149.5 29.5t-126 83t-87.5 127t-33 160.5t32.5 159.5t87 125t126.5 82t151 29.5
q45 0 88.5 -9.5t91.5 -29.5v-234zM671 950l-230 -136l-230 136l54 86l176 -89l176 89z" />
    <glyph glyph-name="ccaron" unicode="&#x10d;" horiz-adv-x="490" 
d="M449 347q-47 32 -95 32q-26 0 -48.5 -9t-39.5 -25.5t-26.5 -39t-9.5 -50.5q0 -27 9.5 -49.5t26 -39t39.5 -25.5t49 -9q51 0 95 35v-154q-67 -29 -127 -29q-56 0 -106.5 19t-89 54.5t-61.5 85t-23 110.5t22 111.5t60 87t90.5 57t112.5 20.5q66 0 122 -28v-154zM95 754
l77 88l144 -112l144 112l80 -88l-224 -166z" />
    <glyph glyph-name="Dcaron" unicode="&#x10e;" horiz-adv-x="786" 
d="M275 166h45q51 0 91 16t67.5 44t42 66.5t14.5 84.5q0 45 -15 84t-42.5 67t-67.5 44t-90 16h-45v-422zM79 754h290q77 0 144.5 -31t118 -82.5t79.5 -120t29 -143.5q0 -74 -28.5 -142.5t-79 -120.5t-118 -83t-145.5 -31h-290v754zM553 950l-230 -136l-230 136l54 86
l176 -89l176 89z" />
    <glyph glyph-name="dcaron" unicode="&#x10f;" horiz-adv-x="701" 
d="M230 258q0 -25 9 -46.5t24.5 -37.5t37 -25t46.5 -9q24 0 45.5 9t37 25t25 37t9.5 45t-9.5 45.5t-25 37.5t-37 25t-45.5 9t-45.5 -9t-37 -25t-25 -36.5t-9.5 -44.5zM458 830h182v-830h-182v57q-58 -73 -157 -73q-56 0 -103 21t-82 58t-54.5 87t-19.5 108q0 55 18.5 104.5
t52.5 86.5t81.5 58.5t104.5 21.5q96 0 159 -67v368zM892 697l-90 -98l-55 63l63 70h-63v98h145v-133z" />
    <glyph glyph-name="Dcroat" unicode="&#x110;" horiz-adv-x="786" 
d="M275 166h45q50 0 90 16t67.5 44t42.5 66.5t15 84.5q0 45 -15 84t-42.5 67t-67.5 44t-90 16h-45v-136h128v-128h-128v-158zM79 324h-68v128h68v302h290q75 0 142 -31t118 -82.5t81 -120t30 -143.5t-30 -143.5t-81 -120t-118 -82.5t-142 -31h-290v324z" />
    <glyph glyph-name="dcroat" unicode="&#x111;" horiz-adv-x="701" 
d="M640 830v-98h62v-150h-62v-582h-182v57q-58 -73 -157 -73q-56 0 -103 21t-82 58t-54.5 87t-19.5 108q0 55 19.5 104.5t53.5 86.5t81 58.5t103 21.5q96 0 159 -67v120h-98v150h98v98h182zM230 258q0 -25 9 -46.5t24.5 -37.5t37 -25t46.5 -9q24 0 45.5 9t37 25t25 37
t9.5 45t-9.5 45.5t-25 37.5t-37 25t-45.5 9t-45.5 -9t-37 -25t-25 -36.5t-9.5 -44.5z" />
    <glyph glyph-name="Emacron" unicode="&#x112;" horiz-adv-x="570" 
d="M508 588h-233v-126h220v-166h-220v-130h233v-166h-429v754h429v-166zM97 983h396v-111h-396v111z" />
    <glyph glyph-name="emacron" unicode="&#x113;" horiz-adv-x="647" 
d="M437 331q-9 38 -37 61t-68 23q-42 0 -68.5 -22t-33.5 -62h207zM225 226q0 -117 110 -117q59 0 89 48h175q-53 -176 -265 -176q-65 0 -119 19.5t-92.5 55.5t-59.5 86t-21 112q0 64 20 115.5t57 87.5t89.5 55.5t118.5 19.5q65 0 117 -19.5t88 -56.5t55 -90.5t19 -120.5v-19
h-381zM138 722h396v-111h-396v111z" />
    <glyph glyph-name="Edotaccent" unicode="&#x116;" horiz-adv-x="570" 
d="M508 588h-233v-126h220v-166h-220v-130h233v-166h-429v754h429v-166zM191 919q0 21 8 39.5t21.5 32.5t32 22t39.5 8t39.5 -8t32.5 -22t22 -32.5t8 -39.5t-8 -39.5t-22 -32t-32.5 -21.5t-39.5 -8t-39.5 8t-32 21.5t-21.5 32t-8 39.5z" />
    <glyph glyph-name="edotaccent" unicode="&#x117;" horiz-adv-x="647" 
d="M437 331q-9 38 -37 61t-68 23q-42 0 -68.5 -22t-33.5 -62h207zM225 226q0 -117 110 -117q59 0 89 48h175q-53 -176 -265 -176q-65 0 -119 19.5t-92.5 55.5t-59.5 86t-21 112q0 64 20 115.5t57 87.5t89.5 55.5t118.5 19.5q65 0 117 -19.5t88 -56.5t55 -90.5t19 -120.5v-19
h-381zM222 696q0 21 8 39.5t22 32.5t33 22t40 8t39.5 -8t32.5 -22.5t22.5 -33t8.5 -39.5t-8.5 -39.5t-22.5 -33t-32.5 -22.5t-39.5 -8q-45 0 -74 29.5t-29 74.5z" />
    <glyph glyph-name="Eogonek" unicode="&#x118;" horiz-adv-x="570" 
d="M79 754h429v-166h-233v-126h220v-166h-220v-130h233v-166q-42 0 -66 -9t-36.5 -22t-16 -26t-3.5 -20q0 -20 13 -32t31 -12q22 0 57 21l-24 -98q-17 -10 -37 -15t-40 -5q-46 0 -75 26t-29 67q0 34 21.5 66t64.5 59h-289v754z" />
    <glyph glyph-name="eogonek" unicode="&#x119;" horiz-adv-x="647" 
d="M225 226q0 -58 27.5 -87.5t79.5 -29.5q62 0 92 48h175q-14 -41 -29.5 -67t-33 -42.5t-37.5 -27t-41 -19.5t-34 -20t-19.5 -21.5t-8.5 -20t-2 -15.5q0 -13 4.5 -21.5t11 -13.5t14 -7t14.5 -2q22 0 57 21l-24 -98q-17 -10 -37 -15t-40 -5q-46 0 -75 26t-29 68q0 27 14.5 54
t43.5 50h-14q-65 0 -119 19.5t-92.5 55.5t-59.5 87t-21 115q0 62 20 112.5t57 86.5t89.5 55.5t117.5 19.5t117 -19.5t88 -56.5t55.5 -90.5t19.5 -120.5v-19h-381zM437 331q-10 41 -38.5 62.5t-67.5 21.5q-43 0 -69 -23.5t-32 -60.5h207z" />
    <glyph glyph-name="Ecaron" unicode="&#x11a;" horiz-adv-x="570" 
d="M508 588h-233v-126h220v-166h-220v-130h233v-166h-429v754h429v-166zM533 950l-230 -136l-230 136l54 86l176 -89l176 89z" />
    <glyph glyph-name="ecaron" unicode="&#x11b;" horiz-adv-x="647" 
d="M437 331q-9 38 -37 61t-68 23q-42 0 -68.5 -22t-33.5 -62h207zM225 226q0 -117 110 -117q59 0 89 48h175q-53 -176 -265 -176q-65 0 -119 19.5t-92.5 55.5t-59.5 86t-21 112q0 64 20 115.5t57 87.5t89.5 55.5t118.5 19.5q65 0 117 -19.5t88 -56.5t55 -90.5t19 -120.5v-19
h-381zM107 754l77 88l144 -112l144 112l80 -88l-224 -166z" />
    <glyph glyph-name="Gbreve" unicode="&#x11e;" horiz-adv-x="880" 
d="M446 422h389q0 -60 -5 -109t-20 -91q-21 -59 -57 -104.5t-84.5 -76t-106.5 -46.5t-122 -16q-88 0 -160.5 29t-124.5 81.5t-81 126t-29 162.5q0 88 28.5 161.5t81 125.5t126.5 81t165 29q118 0 207 -51t141 -158l-186 -77q-26 62 -67.5 89t-94.5 27q-44 0 -80 -16.5
t-61.5 -47t-40 -73.5t-14.5 -96q0 -48 12.5 -89t37.5 -71t62 -46.5t86 -16.5q29 0 56 6.5t48.5 21t35.5 37.5t19 56h-161v152zM352 1000q15 -67 88 -67q74 0 89 67h127q-4 -81 -62 -128q-55 -46 -154 -46q-96 0 -154 46q-56 46 -61 128h127z" />
    <glyph glyph-name="gbreve" unicode="&#x11f;" horiz-adv-x="697" 
d="M230 259q0 -25 9 -46.5t24.5 -37.5t37 -25t46.5 -9q24 0 45.5 9t37 25t25 37.5t9.5 45.5q0 25 -9.5 46t-25.5 37t-37.5 25t-44.5 9q-24 0 -45 -9.5t-37 -25t-25.5 -36.5t-9.5 -45zM636 513v-478q0 -43 -5 -77t-14 -60q-12 -33 -37.5 -61.5t-61.5 -49.5t-81.5 -33
t-98.5 -12q-60 0 -110 15t-87.5 41.5t-61.5 62t-32 77.5h204q19 -51 86 -51q57 0 87.5 32t30.5 89v49q-20 -19 -38.5 -31.5t-37.5 -20.5t-40 -11.5t-46 -3.5q-55 0 -101 19t-79.5 53t-52 81.5t-18.5 105.5q0 59 20 109.5t54.5 88t82 59t103.5 21.5q91 0 153 -68v54h181z
M545 785q-9 -189 -197 -189q-189 0 -198 189h116q10 -82 82 -82q70 0 82 82h115z" />
    <glyph glyph-name="Gcommaaccent" unicode="&#x122;" horiz-adv-x="880" 
d="M446 422h389q0 -60 -5 -109t-20 -91q-21 -59 -57 -104.5t-84.5 -76t-106.5 -46.5t-122 -16q-88 0 -160.5 29t-124.5 81.5t-81 126t-29 162.5q0 88 28.5 161.5t81 125.5t126.5 81t165 29q118 0 207 -51t141 -158l-186 -77q-26 62 -67.5 89t-94.5 27q-44 0 -80 -16.5
t-61.5 -47t-40 -73.5t-14.5 -96q0 -48 12.5 -89t37.5 -71t62 -46.5t86 -16.5q29 0 56 6.5t48.5 21t35.5 37.5t19 56h-161v152zM523 -184l-91 -98l-54 63l63 70h-63v98h145v-133z" />
    <glyph glyph-name="gcommaaccent" unicode="&#x123;" horiz-adv-x="697" 
d="M230 259q0 -25 9 -46.5t24.5 -37.5t37 -25t46.5 -9q24 0 45.5 9t37 25t25 37.5t9.5 45.5q0 25 -9.5 46t-25.5 37t-37.5 25t-44.5 9q-24 0 -45 -9.5t-37 -25t-25.5 -36.5t-9.5 -45zM636 513v-478q0 -43 -5 -77t-14 -60q-12 -33 -37.5 -61.5t-61.5 -49.5t-81.5 -33
t-98.5 -12q-60 0 -110 15t-87.5 41.5t-61.5 62t-32 77.5h204q19 -51 86 -51q57 0 87.5 32t30.5 89v49q-20 -19 -38.5 -31.5t-37.5 -20.5t-40 -11.5t-46 -3.5q-55 0 -101 19t-79.5 53t-52 81.5t-18.5 105.5q0 59 20 109.5t54.5 88t82 59t103.5 21.5q91 0 153 -68v54h181z
M266 720l90 99l55 -63l-63 -70h63v-98h-145v132z" />
    <glyph glyph-name="Imacron" unicode="&#x12a;" horiz-adv-x="354" 
d="M275 754v-754h-196v754h196zM0 983h354v-111h-354v111z" />
    <glyph glyph-name="imacron" unicode="&#x12b;" horiz-adv-x="305" 
d="M243 513v-513h-181v513h181zM0 722h305v-111h-305v111z" />
    <glyph glyph-name="Iogonek" unicode="&#x12e;" horiz-adv-x="354" 
d="M79 754h196v-754h-7q-50 0 -82 -7.5t-50 -19t-25 -25t-7 -26.5q0 -23 14.5 -33t28.5 -10q12 0 34.5 7.5t39.5 22.5l-40 -107q-17 -10 -37 -15t-40 -5q-46 0 -75 26t-29 67q0 34 20.5 66t58.5 59v754z" />
    <glyph glyph-name="iogonek" unicode="&#x12f;" horiz-adv-x="305" 
d="M62 513h181v-513q-49 0 -80.5 -7.5t-50 -19t-25.5 -25.5t-7 -27q0 -23 15 -32.5t29 -9.5q11 0 33.5 7.5t39.5 22.5l-40 -107q-17 -10 -37 -15t-40 -5q-46 0 -75 26t-29 67q0 34 21.5 66t64.5 59v513zM50 710q0 21 8 39.5t22 32.5t32.5 22t39.5 8t39.5 -8t32.5 -22
t22 -32.5t8 -39.5t-8 -39.5t-22 -32.5t-32.5 -22t-39.5 -8t-39.5 8t-32.5 22t-22 32.5t-8 39.5z" />
    <glyph glyph-name="Idotaccent" unicode="&#x130;" horiz-adv-x="354" 
d="M275 754v-754h-196v754h196zM76 919q0 21 8 39.5t21.5 32.5t32 22t39.5 8t39.5 -8t32.5 -22t22 -32.5t8 -39.5t-8 -39.5t-22 -32t-32.5 -21.5t-39.5 -8t-39.5 8t-32 21.5t-21.5 32t-8 39.5z" />
    <glyph glyph-name="dotlessi" unicode="&#x131;" horiz-adv-x="305" 
d="M243 513v-513h-181v513h181z" />
    <glyph glyph-name="Kcommaaccent" unicode="&#x136;" horiz-adv-x="792" 
d="M275 443l239 311h242l-299 -357l327 -397h-254l-255 327v-327h-196v754h196v-311zM437 -184l-91 -98l-54 63l63 70h-63v98h145v-133z" />
    <glyph glyph-name="kcommaaccent" unicode="&#x137;" horiz-adv-x="698" 
d="M243 830v-502l190 185h248l-257 -237l272 -276h-254l-199 209v-209h-181v830h181zM398 -184l-91 -98l-54 63l63 70h-63v98h145v-133z" />
    <glyph glyph-name="Lacute" unicode="&#x139;" horiz-adv-x="532" 
d="M275 754v-588h235v-166h-431v754h196zM347 946l-192 -132l-76 71l163 156z" />
    <glyph glyph-name="lacute" unicode="&#x13a;" horiz-adv-x="305" 
d="M243 830v-830h-181v830h181zM321 1016l-174 -154l-84 62l143 175z" />
    <glyph glyph-name="Lcommaaccent" unicode="&#x13b;" horiz-adv-x="532" 
d="M275 754v-588h235v-166h-431v754h196zM367 -184l-91 -98l-54 63l63 70h-63v98h145v-133z" />
    <glyph glyph-name="lcommaaccent" unicode="&#x13c;" horiz-adv-x="305" 
d="M243 830v-830h-181v830h181zM224 -184l-91 -98l-54 63l63 70h-63v98h145v-133z" />
    <glyph glyph-name="Lcaron" unicode="&#x13d;" horiz-adv-x="532" 
d="M275 754v-588h235v-166h-431v754h196zM520 622l-91 -99l-54 63l63 70h-63v98h145v-132z" />
    <glyph glyph-name="lcaron" unicode="&#x13e;" horiz-adv-x="305" 
d="M243 830v-830h-181v830h181zM487 697l-90 -98l-55 63l63 70h-63v98h145v-133z" />
    <glyph glyph-name="ldot" unicode="&#x140;" horiz-adv-x="305" 
d="M243 830v-830h-181v830h181zM321 415q0 21 8 39.5t22 32.5t33 22t40 8t39.5 -8t32.5 -22.5t22.5 -33t8.5 -39.5t-8.5 -39.5t-22.5 -33t-32.5 -22.5t-39.5 -8q-45 0 -74 29.5t-29 74.5z" />
    <glyph glyph-name="Lslash" unicode="&#x141;" horiz-adv-x="543" 
d="M284 754v-256l131 90v-145l-131 -89v-188h237v-166h-433v260l-77 -58v145l77 57v350h196z" />
    <glyph glyph-name="lslash" unicode="&#x142;" horiz-adv-x="377" 
d="M279 830v-323l87 60v-146l-87 -56v-365h-181v277l-87 -60v145l87 57v411h181z" />
    <glyph glyph-name="Nacute" unicode="&#x143;" horiz-adv-x="911" 
d="M79 0v754h196l362 -461v461h195v-754h-195l-362 461v-461h-196zM593 946l-192 -132l-76 71l163 156z" />
    <glyph glyph-name="nacute" unicode="&#x144;" horiz-adv-x="664" 
d="M62 513h181v-65q37 45 75 60.5t89 15.5q54 0 92.5 -17.5t65.5 -49.5q22 -26 30 -58t8 -73v-326h-181v259q0 38 -5.5 61.5t-19.5 37.5q-12 12 -27 17t-32 5q-46 0 -70.5 -27.5t-24.5 -78.5v-274h-181v513zM520 742l-174 -154l-84 62l143 175z" />
    <glyph glyph-name="Ncommaaccent" unicode="&#x145;" horiz-adv-x="911" 
d="M79 0v754h196l362 -461v461h195v-754h-195l-362 461v-461h-196zM509 -184l-91 -98l-54 63l63 70h-63v98h145v-133z" />
    <glyph glyph-name="ncommaaccent" unicode="&#x146;" horiz-adv-x="664" 
d="M62 513h181v-65q37 45 75 60.5t89 15.5q54 0 92.5 -17.5t65.5 -49.5q22 -26 30 -58t8 -73v-326h-181v259q0 38 -5.5 61.5t-19.5 37.5q-12 12 -27 17t-32 5q-46 0 -70.5 -27.5t-24.5 -78.5v-274h-181v513zM402 -184l-91 -98l-54 63l63 70h-63v98h145v-133z" />
    <glyph glyph-name="Ncaron" unicode="&#x147;" horiz-adv-x="911" 
d="M79 0v754h196l362 -461v461h195v-754h-195l-362 461v-461h-196zM686 950l-230 -136l-230 136l54 86l176 -89l176 89z" />
    <glyph glyph-name="ncaron" unicode="&#x148;" horiz-adv-x="664" 
d="M62 513h181v-65q37 45 75 60.5t89 15.5q54 0 92.5 -17.5t65.5 -49.5q22 -26 30 -58t8 -73v-326h-181v259q0 38 -5.5 61.5t-19.5 37.5q-12 12 -27 17t-32 5q-46 0 -70.5 -27.5t-24.5 -78.5v-274h-181v513zM135 754l77 88l144 -112l144 112l80 -88l-224 -166z" />
    <glyph glyph-name="Omacron" unicode="&#x14c;" horiz-adv-x="925" 
d="M250 377q0 -45 17 -83t46 -66t67.5 -43.5t81.5 -15.5t81.5 15.5t68 43.5t46.5 66t17 83t-17 83t-46.5 66t-68 43.5t-81.5 15.5t-81.5 -15.5t-67.5 -43.5t-46 -66t-17 -83zM45 377q0 84 31 156.5t86 126.5t131.5 84.5t168.5 30.5q91 0 168 -30.5t132.5 -84.5t86.5 -126.5
t31 -156.5t-31 -156.5t-86.5 -126.5t-132.5 -84.5t-168 -30.5q-92 0 -168.5 30.5t-131.5 84.5t-86 126.5t-31 156.5zM267 983h396v-111h-396v111z" />
    <glyph glyph-name="omacron" unicode="&#x14d;" horiz-adv-x="700" 
d="M233 259q0 -26 9.5 -47.5t25 -37.5t37 -25t45.5 -9t45.5 9t37 25t25 37.5t9.5 46.5q0 24 -9.5 45.5t-25 37.5t-37 25t-45.5 9t-45.5 -9t-37 -25t-25 -37t-9.5 -45zM42 261q0 57 23 106.5t64 86t97.5 57.5t123.5 21q66 0 122.5 -20.5t98 -57t64.5 -87t23 -111.5
t-23.5 -111.5t-64.5 -87t-98.5 -56.5t-124.5 -20q-66 0 -122 20t-96.5 57t-63.5 88.5t-23 114.5zM147 722h396v-111h-396v111z" />
    <glyph glyph-name="Ohungarumlaut" unicode="&#x150;" horiz-adv-x="925" 
d="M250 377q0 -45 17 -83t46 -66t67.5 -43.5t81.5 -15.5t81.5 15.5t68 43.5t46.5 66t17 83t-17 83t-46.5 66t-68 43.5t-81.5 15.5t-81.5 -15.5t-67.5 -43.5t-46 -66t-17 -83zM45 377q0 84 31 156.5t86 126.5t131.5 84.5t168.5 30.5q91 0 168 -30.5t132.5 -84.5t86.5 -126.5
t31 -156.5t-31 -156.5t-86.5 -126.5t-132.5 -84.5t-168 -30.5q-92 0 -168.5 30.5t-131.5 84.5t-86 126.5t-31 156.5zM769 946l-174 -132l-61 71l150 156zM503 946l-174 -132l-60 71l149 156z" />
    <glyph glyph-name="ohungarumlaut" unicode="&#x151;" horiz-adv-x="700" 
d="M233 259q0 -26 9.5 -47.5t25 -37.5t37 -25t45.5 -9t45.5 9t37 25t25 37.5t9.5 46.5q0 24 -9.5 45.5t-25 37.5t-37 25t-45.5 9t-45.5 -9t-37 -25t-25 -37t-9.5 -45zM42 261q0 57 23 106.5t64 86t97.5 57.5t123.5 21q66 0 122.5 -20.5t98 -57t64.5 -87t23 -111.5
t-23.5 -111.5t-64.5 -87t-98.5 -56.5t-124.5 -20q-66 0 -122 20t-96.5 57t-63.5 88.5t-23 114.5zM604 742l-154 -154l-69 62l129 175zM401 742l-155 -154l-69 62l129 175z" />
    <glyph glyph-name="OE" unicode="&#x152;" horiz-adv-x="1147" 
d="M250 378q0 -42 16.5 -80t45 -66.5t67 -45.5t82.5 -17t82 17t66.5 45.5t45 66.5t16.5 80q0 43 -17 81t-46 66t-67.5 44t-80.5 16q-43 0 -81 -16t-66.5 -44t-45.5 -66t-17 -81zM1102 587h-228v-125h212v-166h-212v-130h228v-166h-424v80q-52 -52 -111 -76.5t-126 -24.5
q-80 0 -152 32t-126 86.5t-86 127t-32 153.5q0 82 32.5 154.5t88 126.5t128.5 85t153 31q66 0 123.5 -22.5t107.5 -72.5v74h424v-167z" />
    <glyph glyph-name="oe" unicode="&#x153;" horiz-adv-x="1059" 
d="M230 257q0 -25 9 -46.5t24 -38t35 -26t43 -9.5t43.5 9.5t35.5 25.5t24 37.5t9 45.5q0 25 -9 46.5t-24.5 37t-35.5 24t-42 8.5q-23 0 -43 -9t-35.5 -24.5t-24.5 -36t-9 -44.5zM849 332q-26 85 -105 85q-83 0 -106 -85h211zM633 228q7 -62 33.5 -90t79.5 -28q60 0 87 48
h175q-17 -82 -87.5 -129.5t-178.5 -47.5q-129 0 -197 89q-27 -27 -49 -44t-45.5 -27t-50.5 -14t-64 -4q-66 0 -120 19t-92.5 54.5t-60 86t-21.5 113.5q0 62 21.5 113.5t60.5 88t93.5 56.5t120.5 20q32 0 59 -4t52 -14t48.5 -25.5t47.5 -38.5q33 39 82 60.5t115 21.5
q136 0 206 -78.5t70 -225.5h-385z" />
    <glyph glyph-name="Racute" unicode="&#x154;" horiz-adv-x="709" 
d="M275 417h37q58 0 89 24t31 69t-31 69t-89 24h-37v-186zM706 0h-244l-187 290v-290h-196v754h305q63 0 110 -18.5t77.5 -50.5t46 -74t15.5 -90q0 -86 -41.5 -139.5t-122.5 -72.5zM472 946l-192 -132l-76 71l163 156z" />
    <glyph glyph-name="racute" unicode="&#x155;" horiz-adv-x="465" 
d="M62 513h181v-84q29 46 71 70.5t98 24.5h15.5t19.5 -2v-173q-36 18 -78 18q-63 0 -94.5 -37.5t-31.5 -109.5v-220h-181v513zM428 742l-174 -154l-84 62l143 175z" />
    <glyph glyph-name="Rcommaaccent" unicode="&#x156;" horiz-adv-x="709" 
d="M275 417h37q58 0 89 24t31 69t-31 69t-89 24h-37v-186zM706 0h-244l-187 290v-290h-196v754h305q63 0 110 -18.5t77.5 -50.5t46 -74t15.5 -90q0 -86 -41.5 -139.5t-122.5 -72.5zM425 -184l-91 -98l-54 63l63 70h-63v98h145v-133z" />
    <glyph glyph-name="rcommaaccent" unicode="&#x157;" horiz-adv-x="465" 
d="M62 513h181v-84q29 46 71 70.5t98 24.5h15.5t19.5 -2v-173q-36 18 -78 18q-63 0 -94.5 -37.5t-31.5 -109.5v-220h-181v513zM227 -184l-91 -98l-54 63l63 70h-63v98h145v-133z" />
    <glyph glyph-name="Rcaron" unicode="&#x158;" horiz-adv-x="709" 
d="M275 417h37q58 0 89 24t31 69t-31 69t-89 24h-37v-186zM706 0h-244l-187 290v-290h-196v754h305q63 0 110 -18.5t77.5 -50.5t46 -74t15.5 -90q0 -86 -41.5 -139.5t-122.5 -72.5zM560 950l-230 -136l-230 136l54 86l176 -89l176 89z" />
    <glyph glyph-name="rcaron" unicode="&#x159;" horiz-adv-x="465" 
d="M62 513h181v-84q29 46 71 70.5t98 24.5h15.5t19.5 -2v-173q-36 18 -78 18q-63 0 -94.5 -37.5t-31.5 -109.5v-220h-181v513zM31 754l77 88l144 -112l144 112l80 -88l-224 -166z" />
    <glyph glyph-name="Sacute" unicode="&#x15a;" horiz-adv-x="646" 
d="M493 561q-32 26 -64 38.5t-62 12.5q-38 0 -62 -18t-24 -47q0 -20 12 -33t31.5 -22.5t44 -16.5t48.5 -15q96 -32 140.5 -85.5t44.5 -139.5q0 -58 -19.5 -105t-57 -80.5t-92 -52t-123.5 -18.5q-143 0 -265 85l84 158q44 -39 87 -58t85 -19q48 0 71.5 22t23.5 50
q0 17 -6 29.5t-20 23t-36.5 19.5t-54.5 20q-38 12 -74.5 26.5t-65 38.5t-46 60.5t-17.5 92.5t18.5 101.5t52 78t82 50.5t108.5 18q56 0 117 -15.5t117 -45.5zM514 946l-192 -132l-76 71l163 156z" />
    <glyph glyph-name="sacute" unicode="&#x15b;" horiz-adv-x="509" 
d="M402 381q-50 26 -98 26q-25 0 -40.5 -10t-15.5 -27q0 -9 2.5 -14.5t11 -10.5t25 -9t43.5 -10q75 -15 112 -53.5t37 -98.5q0 -45 -18 -81t-50 -60.5t-77 -38t-99 -13.5q-104 0 -205 59l66 128q76 -52 144 -52q25 0 41 11t16 28q0 10 -2.5 16.5t-10.5 12t-23.5 10
t-40.5 9.5q-84 17 -117.5 50.5t-33.5 92.5q0 43 16 77.5t46 58.5t72.5 37t94.5 13q85 0 165 -33zM458 742l-174 -154l-84 62l143 175z" />
    <glyph glyph-name="Scedilla" unicode="&#x15e;" horiz-adv-x="646" 
d="M493 561q-32 26 -64 38.5t-62 12.5q-38 0 -62 -18t-24 -47q0 -20 12 -33t31.5 -22.5t44 -16.5t48.5 -15q96 -32 140.5 -85.5t44.5 -139.5q0 -58 -19.5 -105t-57 -80.5t-92 -52t-123.5 -18.5q-143 0 -265 85l84 158q44 -39 87 -58t85 -19q48 0 71.5 22t23.5 50
q0 17 -6 29.5t-20 23t-36.5 19.5t-54.5 20q-38 12 -74.5 26.5t-65 38.5t-46 60.5t-17.5 92.5t18.5 101.5t52 78t82 50.5t108.5 18q56 0 117 -15.5t117 -45.5zM424 -130l-156 -152l-88 61l132 170z" />
    <glyph glyph-name="scedilla" unicode="&#x15f;" horiz-adv-x="509" 
d="M402 381q-50 26 -98 26q-25 0 -40.5 -10t-15.5 -27q0 -9 2.5 -14.5t11 -10.5t25 -9t43.5 -10q75 -15 112 -53.5t37 -98.5q0 -45 -18 -81t-50 -60.5t-77 -38t-99 -13.5q-104 0 -205 59l66 128q76 -52 144 -52q25 0 41 11t16 28q0 10 -2.5 16.5t-10.5 12t-23.5 10
t-40.5 9.5q-84 17 -117.5 50.5t-33.5 92.5q0 43 16 77.5t46 58.5t72.5 37t94.5 13q85 0 165 -33zM344 -124l-154 -146l-82 52l132 161z" />
    <glyph glyph-name="Scaron" unicode="&#x160;" horiz-adv-x="646" 
d="M493 561q-32 26 -64 38.5t-62 12.5q-38 0 -62 -18t-24 -47q0 -20 12 -33t31.5 -22.5t44 -16.5t48.5 -15q96 -32 140.5 -85.5t44.5 -139.5q0 -58 -19.5 -105t-57 -80.5t-92 -52t-123.5 -18.5q-143 0 -265 85l84 158q44 -39 87 -58t85 -19q48 0 71.5 22t23.5 50
q0 17 -6 29.5t-20 23t-36.5 19.5t-54.5 20q-38 12 -74.5 26.5t-65 38.5t-46 60.5t-17.5 92.5t18.5 101.5t52 78t82 50.5t108.5 18q56 0 117 -15.5t117 -45.5zM561 950l-230 -136l-230 136l54 86l176 -89l176 89z" />
    <glyph glyph-name="scaron" unicode="&#x161;" horiz-adv-x="509" 
d="M402 381q-50 26 -98 26q-25 0 -40.5 -10t-15.5 -27q0 -9 2.5 -14.5t11 -10.5t25 -9t43.5 -10q75 -15 112 -53.5t37 -98.5q0 -45 -18 -81t-50 -60.5t-77 -38t-99 -13.5q-104 0 -205 59l66 128q76 -52 144 -52q25 0 41 11t16 28q0 10 -2.5 16.5t-10.5 12t-23.5 10
t-40.5 9.5q-84 17 -117.5 50.5t-33.5 92.5q0 43 16 77.5t46 58.5t72.5 37t94.5 13q85 0 165 -33zM60 754l77 88l144 -112l144 112l80 -88l-224 -166z" />
    <glyph glyph-name="Tcommaaccent" unicode="&#x162;" horiz-adv-x="533" 
d="M364 588v-588h-196v588h-161v166h518v-166h-161zM338 -184l-91 -98l-54 63l63 70h-63v98h145v-133z" />
    <glyph glyph-name="tcommaaccent" unicode="&#x163;" horiz-adv-x="373" 
d="M264 362v-362h-181v362h-60v151h60v154h181v-154h103v-151h-103zM246 -184l-91 -98l-54 63l63 70h-63v98h145v-133z" />
    <glyph glyph-name="Tcaron" unicode="&#x164;" horiz-adv-x="533" 
d="M365 588v-588h-196v588h-161v166h518v-166h-161zM496 950l-230 -136l-230 136l54 86l176 -89l176 89z" />
    <glyph glyph-name="tcaron" unicode="&#x165;" horiz-adv-x="373" 
d="M264 362v-362h-181v362h-60v151h60v154h181v-154h103v-151h-103zM515 697l-90 -98l-55 63l63 70h-63v98h145v-133z" />
    <glyph glyph-name="Umacron" unicode="&#x16a;" horiz-adv-x="816" 
d="M275 754v-410q0 -33 2.5 -67.5t15 -62.5t39.5 -45.5t76 -17.5t75.5 17.5t39.5 45.5t15.5 62.5t2.5 67.5v410h195v-437q0 -176 -80.5 -257t-247.5 -81t-248 81t-81 257v437h196zM206 983h396v-111h-396v111z" />
    <glyph glyph-name="umacron" unicode="&#x16b;" horiz-adv-x="669" 
d="M243 513v-289q0 -95 92 -95t92 95v289h181v-324q0 -104 -68.5 -156t-204.5 -52t-204.5 52t-68.5 156v324h181zM137 722h396v-111h-396v111z" />
    <glyph glyph-name="Uring" unicode="&#x16e;" horiz-adv-x="816" 
d="M275 754v-410q0 -33 2.5 -67.5t15 -62.5t39.5 -45.5t76 -17.5t75.5 17.5t39.5 45.5t15.5 62.5t2.5 67.5v410h195v-437q0 -176 -80.5 -257t-247.5 -81t-248 81t-81 257v437h196zM343 929q0 -44 57 -44q59 0 59 43t-59 43q-26 0 -41.5 -11.5t-15.5 -30.5zM246 929
q0 53 42 85q40 31 113 31t114.5 -31.5t41.5 -85.5q0 -55 -41.5 -86t-114.5 -31t-114 31t-41 87z" />
    <glyph glyph-name="uring" unicode="&#x16f;" horiz-adv-x="669" 
d="M243 513v-289q0 -95 92 -95t92 95v289h181v-324q0 -104 -68.5 -156t-204.5 -52t-204.5 52t-68.5 156v324h181zM273 723q0 -46 59 -46q61 0 61 45t-61 45q-27 0 -43 -12t-16 -32zM177 723q0 54 41.5 85t114.5 31q75 0 115 -31.5t40 -85.5t-40 -85.5t-115 -31.5
q-74 0 -115 31t-41 87z" />
    <glyph glyph-name="Uhungarumlaut" unicode="&#x170;" horiz-adv-x="816" 
d="M275 754v-410q0 -33 2.5 -67.5t15 -62.5t39.5 -45.5t76 -17.5t75.5 17.5t39.5 45.5t15.5 62.5t2.5 67.5v410h195v-437q0 -176 -80.5 -257t-247.5 -81t-248 81t-81 257v437h196zM690 946l-174 -132l-61 71l150 156zM424 946l-174 -132l-60 71l149 156z" />
    <glyph glyph-name="uhungarumlaut" unicode="&#x171;" horiz-adv-x="669" 
d="M243 513v-289q0 -95 92 -95t92 95v289h181v-324q0 -104 -68.5 -156t-204.5 -52t-204.5 52t-68.5 156v324h181zM587 742l-154 -154l-69 62l129 175zM384 742l-155 -154l-69 62l129 175z" />
    <glyph glyph-name="Uogonek" unicode="&#x172;" horiz-adv-x="816" 
d="M275 754v-410q0 -33 2.5 -67.5t15 -62.5t39.5 -45.5t76 -17.5t75.5 17.5t39.5 45.5t15.5 62.5t2.5 67.5v410h195v-437q0 -73 -12.5 -124.5t-32.5 -86.5t-45 -56t-50 -33t-47.5 -18t-36.5 -11q-30 -11 -38.5 -28.5t-8.5 -32.5q0 -14 4.5 -23.5t11 -15t14 -7.5t14.5 -2
q11 0 33 7.5t39 20.5l-39 -105q-17 -10 -37 -15t-40 -5q-47 0 -75.5 27.5t-28.5 66.5q0 28 15 55.5t41 47.5h-9q-167 0 -248 81t-81 257v437h196z" />
    <glyph glyph-name="uogonek" unicode="&#x173;" horiz-adv-x="669" 
d="M243 513v-289q0 -95 92 -95t92 95v289h181v-324q0 -72 -32 -118.5t-101 -70.5q-33 -11 -46.5 -34t-13.5 -41t13 -30.5t31 -12.5q22 0 57 21l-24 -98q-35 -20 -80 -20q-21 0 -39.5 7t-32 19.5t-21.5 29t-8 35.5q0 59 56 106q-8 -1 -16 -1h-16q-136 0 -204.5 52t-68.5 156
v324h181z" />
    <glyph glyph-name="Ydieresis" unicode="&#x178;" horiz-adv-x="724" 
d="M261 362l-275 392h234l140 -206l139 206h234l-276 -392v-362h-196v362zM401 925q0 19 7.5 36.5t21 31t31.5 21t38 7.5t37.5 -7.5t31 -20.5t21.5 -31t8 -38q0 -42 -28.5 -70t-69.5 -28q-42 0 -70 28.5t-28 70.5zM129 925q0 19 7.5 36.5t21 31t31.5 21t38 7.5t37.5 -7.5
t31 -20.5t21.5 -31t8 -38q0 -21 -8 -38.5t-21 -31t-31 -21t-37 -7.5q-43 0 -71 29t-28 70z" />
    <glyph glyph-name="Zacute" unicode="&#x179;" horiz-adv-x="714" 
d="M344 166h316v-166h-645l357 588h-297v166h624zM555 946l-192 -132l-76 71l163 156z" />
    <glyph glyph-name="zacute" unicode="&#x17a;" horiz-adv-x="589" 
d="M326 151h216v-151h-520l242 362h-209v151h511zM467 742l-174 -154l-84 62l143 175z" />
    <glyph glyph-name="Zdotaccent" unicode="&#x17b;" horiz-adv-x="714" 
d="M344 166h316v-166h-645l357 588h-297v166h624zM280 919q0 21 8 39.5t21.5 32.5t32 22t39.5 8t39.5 -8t32.5 -22t22 -32.5t8 -39.5t-8 -39.5t-22 -32t-32.5 -21.5t-39.5 -8t-39.5 8t-32 21.5t-21.5 32t-8 39.5z" />
    <glyph glyph-name="zdotaccent" unicode="&#x17c;" horiz-adv-x="589" 
d="M326 151h216v-151h-520l242 362h-209v151h511zM208 696q0 21 8 39.5t22 32.5t33 22t40 8t39.5 -8t32.5 -22.5t22.5 -33t8.5 -39.5t-8.5 -39.5t-22.5 -33t-32.5 -22.5t-39.5 -8q-45 0 -74 29.5t-29 74.5z" />
    <glyph glyph-name="Zcaron" unicode="&#x17d;" horiz-adv-x="714" 
d="M344 166h316v-166h-645l357 588h-297v166h624zM610 950l-230 -136l-230 136l54 86l176 -89l176 89z" />
    <glyph glyph-name="zcaron" unicode="&#x17e;" horiz-adv-x="589" 
d="M326 151h216v-151h-520l242 362h-209v151h511zM90 754l77 88l144 -112l144 112l80 -88l-224 -166z" />
    <glyph glyph-name="florin" unicode="&#x192;" horiz-adv-x="679" 
d="M196 501h88l23 120q39 206 223 206q70 0 128 -35l-29 -156q-44 30 -79 30q-29 0 -45 -21.5t-26 -75.5l-12 -68h110l-14 -75h-109l-53 -292q-16 -86 -40 -146.5t-61 -98.5t-87.5 -55.5t-118.5 -17.5q-24 0 -49 2.5t-54 7.5l29 165q23 -5 41.5 -7.5t32.5 -2.5q30 0 50 7.5
t34 29t25 60.5t23 103l45 245h-87z" />
    <glyph glyph-name="Scommaaccent" unicode="&#x218;" horiz-adv-x="646" 
d="M493 561q-32 26 -64 38.5t-62 12.5q-38 0 -62 -18t-24 -47q0 -20 12 -33t31.5 -22.5t44 -16.5t48.5 -15q96 -32 140.5 -85.5t44.5 -139.5q0 -58 -19.5 -105t-57 -80.5t-92 -52t-123.5 -18.5q-143 0 -265 85l84 158q44 -39 87 -58t85 -19q48 0 71.5 22t23.5 50
q0 17 -6 29.5t-20 23t-36.5 19.5t-54.5 20q-38 12 -74.5 26.5t-65 38.5t-46 60.5t-17.5 92.5t18.5 101.5t52 78t82 50.5t108.5 18q56 0 117 -15.5t117 -45.5zM387 -184l-91 -98l-54 63l63 70h-63v98h145v-133z" />
    <glyph glyph-name="scommaaccent" unicode="&#x219;" horiz-adv-x="509" 
d="M402 381q-50 26 -98 26q-25 0 -40.5 -10t-15.5 -27q0 -9 2.5 -14.5t11 -10.5t25 -9t43.5 -10q75 -15 112 -53.5t37 -98.5q0 -45 -18 -81t-50 -60.5t-77 -38t-99 -13.5q-104 0 -205 59l66 128q76 -52 144 -52q25 0 41 11t16 28q0 10 -2.5 16.5t-10.5 12t-23.5 10
t-40.5 9.5q-84 17 -117.5 50.5t-33.5 92.5q0 43 16 77.5t46 58.5t72.5 37t94.5 13q85 0 165 -33zM322 -184l-91 -98l-54 63l63 70h-63v98h145v-133z" />
    <glyph glyph-name="uni021A" unicode="&#x21a;" horiz-adv-x="534" 
d="M365 588v-588h-196v588h-161v166h518v-166h-161zM342 -184l-91 -98l-54 63l63 70h-63v98h145v-133z" />
    <glyph glyph-name="uni021B" unicode="&#x21b;" horiz-adv-x="373" 
d="M264 362v-362h-181v362h-60v151h60v154h181v-154h103v-151h-103zM246 -184l-91 -98l-54 63l63 70h-63v98h145v-133z" />
    <glyph glyph-name="circumflex" unicode="&#x2c6;" horiz-adv-x="445" 
d="M0 676l221 166l224 -166l-80 -88l-144 112l-144 -112z" />
    <glyph glyph-name="caron" unicode="&#x2c7;" horiz-adv-x="565" 
d="M60 754l77 88l144 -112l144 112l80 -88l-224 -166z" />
    <glyph glyph-name="breve" unicode="&#x2d8;" horiz-adv-x="395" 
d="M395 785q-9 -189 -197 -189q-189 0 -198 189h116q10 -82 82 -82q70 0 82 82h115z" />
    <glyph glyph-name="dotaccent" unicode="&#x2d9;" horiz-adv-x="565" 
d="M180 696q0 21 8 39.5t22 32.5t33 22t40 8t39.5 -8t32.5 -22.5t22.5 -33t8.5 -39.5t-8.5 -39.5t-22.5 -33t-32.5 -22.5t-39.5 -8q-45 0 -74 29.5t-29 74.5z" />
    <glyph glyph-name="ring" unicode="&#x2da;" horiz-adv-x="311" 
d="M96 710q0 -46 59 -46q61 0 61 45t-61 45q-27 0 -43 -12t-16 -32zM0 710q0 54 41.5 85t114.5 31q75 0 115 -31.5t40 -85.5t-40 -85.5t-115 -31.5q-74 0 -115 31t-41 87z" />
    <glyph glyph-name="ogonek" unicode="&#x2db;" horiz-adv-x="565" 
d="M372 0q-65 -42 -65 -78q0 -18 13 -30.5t31 -12.5q22 0 57 21l-24 -98q-35 -20 -80 -20q-21 0 -39.5 7t-32 19.5t-21.5 29t-8 35.5q0 73 86 127h83z" />
    <glyph glyph-name="tilde" unicode="&#x2dc;" horiz-adv-x="402" 
d="M0 593v11q0 31 8 58t23 46.5t35 31t44 11.5q11 0 36.5 -6.5t63.5 -20.5q23 -8 38.5 -12.5t26.5 -4.5q18 0 24.5 9t13.5 35h89q-9 -85 -36 -121.5t-78 -36.5q-21 0 -45.5 6t-53.5 17l-41 15q-12 5 -26 5q-18 0 -25 -8.5t-12 -34.5h-85z" />
    <glyph glyph-name="hungarumlaut" unicode="&#x2dd;" horiz-adv-x="427" 
d="M427 742l-154 -154l-69 62l129 175zM224 742l-155 -154l-69 62l129 175z" />
    <glyph glyph-name="tonos" unicode="&#x384;" horiz-adv-x="234" 
d="M234 840l-126 -254h-108l78 254h156z" />
    <glyph glyph-name="dieresistonos" unicode="&#x385;" horiz-adv-x="540" 
d="M87 758q36 0 61.5 -25.5t25.5 -61.5t-25.5 -61.5t-61.5 -25.5t-61.5 25.5t-25.5 62.5q0 18 7 33.5t19 27t27.5 18.5t33.5 7zM453 758q36 0 61.5 -25.5t25.5 -61.5t-25.5 -61.5t-61.5 -25.5t-61.5 25.5t-25.5 62.5q0 18 7 33.5t19 27t27.5 18.5t33.5 7zM415 839l-126 -254
h-108l78 254h156z" />
    <glyph glyph-name="Alphatonos" unicode="&#x386;" horiz-adv-x="803" 
d="M489 280l-88 251l-88 -251h176zM541 131h-280l-45 -131h-209l287 754h214l287 -754h-209zM234 840l-126 -254h-108l78 254h156z" />
    <glyph glyph-name="anoteleia" unicode="&#x387;" horiz-adv-x="340" 
d="M53 433q0 24 9 45.5t25 37.5t37.5 25t45.5 9t45.5 -9t37.5 -25t25 -37.5t9 -45.5t-9 -45.5t-25 -37.5t-37.5 -25t-45.5 -9t-45.5 9t-37.5 25t-25 37.5t-9 45.5z" />
    <glyph glyph-name="Epsilontonos" unicode="&#x388;" horiz-adv-x="553" 
d="M508 588h-233v-126h220v-166h-220v-130h233v-166h-429v754h429v-166zM79 840l-126 -254h-108l78 254h156z" />
    <glyph glyph-name="Etatonos" unicode="&#x389;" horiz-adv-x="833" 
d="M275 463h283v291h196v-754h-196v311h-283v-311h-196v754h196v-291zM81 840l-126 -254h-108l78 254h156z" />
    <glyph glyph-name="Iotatonos" unicode="&#x38a;" horiz-adv-x="354" 
d="M275 754v-754h-196v754h196zM82 840l-126 -254h-108l78 254h156z" />
    <glyph glyph-name="Omicrontonos" unicode="&#x38c;" horiz-adv-x="925" 
d="M250 377q0 -45 17 -83t46 -66t67.5 -43.5t81.5 -15.5t81.5 15.5t68 43.5t46.5 66t17 83t-17 83t-46.5 66t-68 43.5t-81.5 15.5t-81.5 -15.5t-67.5 -43.5t-46 -66t-17 -83zM45 377q0 84 31 156.5t86 126.5t131.5 84.5t168.5 30.5q91 0 168 -30.5t132.5 -84.5t86.5 -126.5
t31 -156.5t-31 -156.5t-86.5 -126.5t-132.5 -84.5t-168 -30.5q-92 0 -168.5 30.5t-131.5 84.5t-86 126.5t-31 156.5zM157 840l-126 -254h-108l78 254h156z" />
    <glyph glyph-name="Upsilontonos" unicode="&#x38e;" horiz-adv-x="723" 
d="M260 362l-275 392h234l140 -206l139 206h234l-276 -392v-362h-196v362zM7 840l-126 -254h-108l78 254h156z" />
    <glyph glyph-name="Omegatonos" unicode="&#x38f;" horiz-adv-x="955" 
d="M176 153q-31 22 -53 53t-36 64.5t-20.5 66t-6.5 57.5q0 77 31.5 146.5t87.5 122t132 83t166 30.5t166.5 -30.5t132.5 -83t87.5 -122t31.5 -146.5q0 -25 -6.5 -57.5t-20 -66t-35.5 -64.5t-53 -53h130v-153h-376v168q34 10 62.5 31.5t49 51t32 65t11.5 71.5q0 43 -16 80
t-44.5 65t-67 44t-83.5 16t-83.5 -16t-67 -44t-45 -65t-16.5 -80q0 -36 11.5 -71.5t32 -65t48.5 -51t62 -31.5v-168h-375v153h131zM160 840l-126 -254h-108l78 254h156z" />
    <glyph glyph-name="iotadieresistonos" unicode="&#x390;" horiz-adv-x="325" 
d="M243 185q0 -17 9.5 -30.5t34.5 -13.5v-147q-40 0 -80 5t-72.5 24.5t-52.5 57.5t-20 104v328h181v-328zM-24 758q36 0 61.5 -25.5t25.5 -61.5t-25.5 -61.5t-61.5 -25.5t-61.5 25.5t-25.5 62.5q0 18 7 33.5t19 27t27.5 18.5t33.5 7zM342 758q36 0 61.5 -25.5t25.5 -61.5
t-25.5 -61.5t-61.5 -25.5t-61.5 25.5t-25.5 62.5q0 18 7 33.5t19 27t27.5 18.5t33.5 7zM304 839l-126 -254h-108l78 254h156z" />
    <glyph glyph-name="Alpha" unicode="&#x391;" horiz-adv-x="803" 
d="M489 280l-88 251l-88 -251h176zM541 131h-280l-45 -131h-209l287 754h214l287 -754h-209z" />
    <glyph glyph-name="Beta" unicode="&#x392;" horiz-adv-x="692" 
d="M275 152h43q74 0 106 19t32 61t-32 61t-106 19h-43v-160zM275 458h36q92 0 92 73t-92 73h-36v-146zM79 754h292q104 0 158 -50t54 -144q0 -57 -20.5 -94.5t-62.5 -63.5q42 -8 71.5 -24.5t48 -40.5t26.5 -54t8 -64q0 -53 -18.5 -94t-52 -69t-81.5 -42t-108 -14h-315v754z
" />
    <glyph glyph-name="Gamma" unicode="&#x393;" horiz-adv-x="530" 
d="M508 588h-233v-588h-196v754h429v-166z" />
    <glyph glyph-name="glyph310" unicode="&#x394;" horiz-adv-x="803" 
d="M521 165l-118 356l-122 -356h240zM7 0l290 754h214l284 -754h-788z" />
    <glyph glyph-name="Epsilon" unicode="&#x395;" horiz-adv-x="570" 
d="M508 588h-233v-126h220v-166h-220v-130h233v-166h-429v754h429v-166z" />
    <glyph glyph-name="Zeta" unicode="&#x396;" horiz-adv-x="714" 
d="M344 166h316v-166h-645l357 588h-297v166h624z" />
    <glyph glyph-name="Eta" unicode="&#x397;" horiz-adv-x="833" 
d="M275 463h283v291h196v-754h-196v311h-283v-311h-196v754h196v-291z" />
    <glyph glyph-name="Theta" unicode="&#x398;" horiz-adv-x="925" 
d="M539 310h-235l79 132h235zM250 377q0 -45 17 -83t46 -66t67.5 -43.5t81.5 -15.5t81.5 15.5t68 43.5t46.5 66t17 83t-17 83t-46.5 66t-68 43.5t-81.5 15.5t-81.5 -15.5t-67.5 -43.5t-46 -66t-17 -83zM45 377q0 84 31 156.5t86 126.5t131.5 84.5t168.5 30.5q91 0 168 -30.5
t132.5 -84.5t86.5 -126.5t31 -156.5t-31 -156.5t-86.5 -126.5t-132.5 -84.5t-168 -30.5q-92 0 -168.5 30.5t-131.5 84.5t-86 126.5t-31 156.5z" />
    <glyph glyph-name="Iota" unicode="&#x399;" horiz-adv-x="354" 
d="M275 754v-754h-196v754h196z" />
    <glyph glyph-name="Kappa" unicode="&#x39a;" horiz-adv-x="792" 
d="M275 443l239 311h242l-299 -357l327 -397h-254l-255 327v-327h-196v754h196v-311z" />
    <glyph glyph-name="Lambda" unicode="&#x39b;" horiz-adv-x="803" 
d="M403 521l-188 -521h-208l290 754h214l284 -754h-211z" />
    <glyph glyph-name="Mu" unicode="&#x39c;" horiz-adv-x="1035" 
d="M45 0l128 754h194l151 -402l150 402h194l128 -754h-195l-65 434l-178 -434h-78l-169 434l-65 -434h-195z" />
    <glyph glyph-name="Nu" unicode="&#x39d;" horiz-adv-x="911" 
d="M79 0v754h196l362 -461v461h195v-754h-195l-362 461v-461h-196z" />
    <glyph glyph-name="Xi" unicode="&#x39e;" horiz-adv-x="755" 
d="M676 0h-597v166h597v-166zM606 297h-457v158h457v-158zM676 588h-597v166h597v-166z" />
    <glyph glyph-name="Omicron" unicode="&#x39f;" horiz-adv-x="925" 
d="M250 377q0 -45 17 -83t46 -66t67.5 -43.5t81.5 -15.5t81.5 15.5t68 43.5t46.5 66t17 83t-17 83t-46.5 66t-68 43.5t-81.5 15.5t-81.5 -15.5t-67.5 -43.5t-46 -66t-17 -83zM45 377q0 84 31 156.5t86 126.5t131.5 84.5t168.5 30.5q91 0 168 -30.5t132.5 -84.5t86.5 -126.5
t31 -156.5t-31 -156.5t-86.5 -126.5t-132.5 -84.5t-168 -30.5q-92 0 -168.5 30.5t-131.5 84.5t-86 126.5t-31 156.5z" />
    <glyph glyph-name="Pi" unicode="&#x3a0;" horiz-adv-x="833" 
d="M558 588h-283v-588h-196v754h675v-754h-196v588z" />
    <glyph glyph-name="Rho" unicode="&#x3a1;" horiz-adv-x="678" 
d="M275 408h65q108 0 108 94t-108 94h-65v-188zM275 0h-196v754h312q127 0 194.5 -66t67.5 -186t-67.5 -186t-194.5 -66h-116v-250z" />
    <glyph glyph-name="Sigma" unicode="&#x3a3;" horiz-adv-x="744" 
d="M344 400l-306 354h646v-166h-262l149 -184l-183 -239h312v-165h-692z" />
    <glyph glyph-name="Tau" unicode="&#x3a4;" horiz-adv-x="534" 
d="M365 588v-588h-196v588h-161v166h518v-166h-161z" />
    <glyph glyph-name="Upsilon" unicode="&#x3a5;" horiz-adv-x="723" 
d="M260 362l-275 392h234l140 -206l139 206h234l-276 -392v-362h-196v362z" />
    <glyph glyph-name="Phi" unicode="&#x3a6;" horiz-adv-x="1014" 
d="M416 44q-84 6 -153 34.5t-117.5 73.5t-75 102.5t-26.5 121.5t26.5 122t75 103t117.5 73.5t153 34.5v79h182v-79q84 -6 153 -34.5t117.5 -73.5t75 -103t26.5 -122t-26.5 -121.5t-75 -102.5t-117.5 -73.5t-153 -34.5v-78h-182v78zM598 231h6q35 0 65.5 11t53.5 30.5t36 46
t13 57.5t-13 57.5t-36 46.5t-53.5 31.5t-65.5 11.5h-6v-292zM410 523q-35 0 -65.5 -11.5t-53.5 -31.5t-36 -46.5t-13 -57.5t13 -57.5t36 -46t53.5 -30.5t65.5 -11h6v292h-6z" />
    <glyph glyph-name="Chi" unicode="&#x3a7;" horiz-adv-x="804" 
d="M295 402l-235 352h242l102 -195l126 195h242l-249 -352l281 -402h-239l-151 246l-177 -246h-237z" />
    <glyph glyph-name="Psi" unicode="&#x3a8;" horiz-adv-x="935" 
d="M558 754v-437q43 6 68.5 18t38.5 34t17 56.5t4 86.5v242h189v-269q0 -90 -20 -153t-60 -103.5t-99 -61t-138 -24.5v-143h-181v143q-81 4 -140.5 24.5t-98.5 61t-58.5 103.5t-19.5 153v269h189v-242q0 -44 3 -78.5t16 -59.5t38.5 -39t70.5 -18v437h181z" />
    <glyph glyph-name="Omega" unicode="&#x3a9;" horiz-adv-x="955" 
d="M176 153q-31 22 -53 53t-36 64.5t-20.5 66t-6.5 57.5q0 77 31.5 146.5t87.5 122t132 83t166 30.5t166.5 -30.5t132.5 -83t87.5 -122t31.5 -146.5q0 -25 -6.5 -57.5t-20 -66t-35.5 -64.5t-53 -53h130v-153h-376v168q34 10 62.5 31.5t49 51t32 65t11.5 71.5q0 43 -16 80
t-44.5 65t-67 44t-83.5 16t-83.5 -16t-67 -44t-45 -65t-16.5 -80q0 -36 11.5 -71.5t32 -65t48.5 -51t62 -31.5v-168h-375v153h131z" />
    <glyph glyph-name="Iotadieresis" unicode="&#x3aa;" horiz-adv-x="354" 
d="M275 754v-754h-196v754h196zM197 923q0 41 28 69.5t69 28.5t69.5 -28.5t28.5 -69.5t-28.5 -69t-69.5 -28t-69 28t-28 69zM-37 923q0 41 28 69.5t69 28.5t69.5 -28.5t28.5 -69.5t-28.5 -69t-69.5 -28t-69 28t-28 69z" />
    <glyph glyph-name="Upsilondieresis" unicode="&#x3ab;" horiz-adv-x="724" 
d="M261 362l-275 392h234l140 -206l139 206h234l-276 -392v-362h-196v362zM401 925q0 19 7.5 36.5t21 31t31.5 21t38 7.5t37.5 -7.5t31 -20.5t21.5 -31t8 -38q0 -42 -28.5 -70t-69.5 -28q-42 0 -70 28.5t-28 70.5zM129 925q0 19 7.5 36.5t21 31t31.5 21t38 7.5t37.5 -7.5
t31 -20.5t21.5 -31t8 -38q0 -21 -8 -38.5t-21 -31t-31 -21t-37 -7.5q-43 0 -71 29t-28 70z" />
    <glyph glyph-name="alphatonos" unicode="&#x3ac;" horiz-adv-x="701" 
d="M226 258q0 -25 7.5 -46.5t22 -37.5t34 -25t43.5 -9q15 0 32 7.5t33 22.5t28.5 36.5t18.5 49.5q-6 28 -18.5 50t-28.5 37t-33 22.5t-32 7.5q-23 0 -43 -9t-34 -25t-22 -36.5t-8 -44.5zM476 66q-20 -26 -41.5 -42t-43.5 -25t-45 -12t-45 -3q-56 0 -103 21t-82 58t-54.5 87
t-19.5 108q0 55 19.5 104.5t53.5 86.5t81 58.5t103 21.5q24 0 47 -3t45.5 -12t43.5 -25t41 -42l17 66h173l-76 -257l76 -256h-173zM490 840l-126 -254h-108l78 254h156z" />
    <glyph glyph-name="epsilontonos" unicode="&#x3ad;" horiz-adv-x="461" 
d="M409 370q-17 6 -44.5 9.5t-47.5 3.5q-29 0 -51 -7.5t-22 -25.5q0 -20 30 -27.5t83 -8.5v-108h-8q-23 0 -44 -2.5t-37 -7t-25 -12.5t-9 -18t8.5 -17t22 -11.5t31 -6.5t35.5 -2q17 0 40.5 2.5t37.5 7.5v-146q-23 -5 -55 -8.5t-58 -3.5q-50 0 -100 12t-84 34q-70 47 -70 126
q0 88 103 120q-45 23 -65.5 51t-20.5 62q0 31 19 58t51 46.5t75.5 30.5t92.5 11q27 0 57 -3.5t55 -9.5v-149zM435 840l-126 -254h-108l78 254h156z" />
    <glyph glyph-name="etatonos" unicode="&#x3ae;" horiz-adv-x="670" 
d="M84 323q0 17 -9.5 30.5t-34.5 13.5v147q80 0 125.5 -16t67.5 -57q16 22 38 38t47 26t51.5 14.5t52.5 4.5q96 0 141.5 -53.5t45.5 -144.5v-582h-181v515q0 38 -6 61.5t-16 37t-24 18t-30 4.5q-46 0 -66.5 -27.5t-20.5 -78.5v-274h-181v323zM552 840l-126 -254h-108l78 254
h156z" />
    <glyph glyph-name="iotatonos" unicode="&#x3af;" horiz-adv-x="325" 
d="M243 185q0 -17 9.5 -30.5t34.5 -13.5v-147q-40 0 -80 5t-72.5 24.5t-52.5 57.5t-20 104v328h181v-328zM300 840l-126 -254h-108l78 254h156z" />
    <glyph glyph-name="upsilondieresistonos" unicode="&#x3b0;" horiz-adv-x="669" 
d="M151 758q36 0 61.5 -25.5t25.5 -61.5t-25.5 -61.5t-61.5 -25.5t-61.5 25.5t-25.5 62.5q0 18 7 33.5t19 27t27.5 18.5t33.5 7zM517 758q36 0 61.5 -25.5t25.5 -61.5t-25.5 -61.5t-61.5 -25.5t-61.5 25.5t-25.5 62.5q0 18 7 33.5t19 27t27.5 18.5t33.5 7zM479 839
l-126 -254h-108l78 254h156zM243 513v-289q0 -95 92 -95t92 95v289h181v-324q0 -104 -68.5 -156t-204.5 -52t-204.5 52t-68.5 156v324h181z" />
    <glyph glyph-name="alpha" unicode="&#x3b1;" horiz-adv-x="701" 
d="M226 258q0 -25 7.5 -46.5t22 -37.5t34 -25t43.5 -9q15 0 32 7.5t33 22.5t28.5 36.5t18.5 49.5q-6 28 -18.5 50t-28.5 37t-33 22.5t-32 7.5q-23 0 -43 -9t-34 -25t-22 -36.5t-8 -44.5zM476 66q-20 -26 -41.5 -42t-43.5 -25t-45 -12t-45 -3q-56 0 -103 21t-82 58t-54.5 87
t-19.5 108q0 55 19.5 104.5t53.5 86.5t81 58.5t103 21.5q24 0 47 -3t45.5 -12t43.5 -25t41 -42l17 66h173l-76 -257l76 -256h-173z" />
    <glyph glyph-name="beta" unicode="&#x3b2;" horiz-adv-x="671" 
d="M62 477q0 96 16.5 163t49.5 109t84 61.5t120 19.5q57 0 105 -17t82.5 -48t53.5 -74t19 -95q0 -19 -2 -41t-11.5 -44t-28.5 -42.5t-53 -36.5q46 -21 73 -49t41.5 -58t18.5 -57.5t4 -46.5q0 -51 -18.5 -94.5t-50.5 -76t-75.5 -51t-93.5 -18.5q-47 0 -82.5 12t-70.5 41v-290
h-181v733zM450 244q0 59 -32.5 93t-96.5 34h-7t-10 -1v108q55 0 83 29.5t28 83.5q0 47 -22.5 75t-60.5 28q-33 0 -51.5 -17t-26.5 -44.5t-9.5 -62.5t-1.5 -70v-346q28 -15 51 -21t50 -6q46 0 76 33t30 84z" />
    <glyph glyph-name="gamma" unicode="&#x3b3;" horiz-adv-x="690" 
d="M255 -256v257q0 27 -6.5 61.5t-19.5 71.5t-32 72.5t-45 65.5t-58 51t-71 28v181q82 -1 139.5 -30t97 -72t63.5 -93t38 -93q6 26 23 63t38 75.5t43 73.5t37 57h210q-45 -66 -94 -139t-89.5 -144.5t-66.5 -135t-26 -109.5v-241h-181z" />
    <glyph glyph-name="delta" unicode="&#x3b4;" horiz-adv-x="699" 
d="M531 680h-102q-11 0 -21 -5.5t-10 -21.5q0 -7 2.5 -13t10.5 -14l181 -202q33 -37 49.5 -82t16.5 -93q0 -57 -22.5 -106t-63.5 -85t-98 -56.5t-125 -20.5t-124 20.5t-97 57t-63.5 87t-22.5 111.5q0 96 56.5 167.5t165.5 101.5q-23 29 -41 51t-30 40.5t-18.5 36t-6.5 37.5
q0 31 15 57t43.5 44t69 28t91.5 10h144v-150zM355 140q31 0 52.5 11.5t35 29.5t19.5 39t6 40q0 15 -6.5 34t-30.5 44l-30 31q-6 1 -13 3q-6 1 -13.5 2t-16.5 1q-26 0 -48.5 -8.5t-39.5 -23.5t-27 -36.5t-10 -47.5q0 -25 9 -46.5t25 -37.5t38.5 -25.5t49.5 -9.5z" />
    <glyph glyph-name="epsilon" unicode="&#x3b5;" horiz-adv-x="461" 
d="M409 370q-17 6 -44.5 9.5t-47.5 3.5q-29 0 -51 -7.5t-22 -25.5q0 -20 30 -27.5t83 -8.5v-108h-8q-23 0 -44 -2.5t-37 -7t-25 -12.5t-9 -18t8.5 -17t22 -11.5t31 -6.5t35.5 -2q17 0 40.5 2.5t37.5 7.5v-146q-23 -5 -55 -8.5t-58 -3.5q-50 0 -100 12t-84 34q-70 47 -70 126
q0 88 103 120q-45 23 -65.5 51t-20.5 62q0 31 19 58t51 46.5t75.5 30.5t92.5 11q27 0 57 -3.5t55 -9.5v-149z" />
    <glyph glyph-name="zeta" unicode="&#x3b6;" horiz-adv-x="544" 
d="M122 680v150h331l92 -138q-63 -53 -120 -109t-100 -112.5t-68.5 -110.5t-25.5 -102q0 -27 9 -48.5t24 -36t33.5 -22.5t36.5 -8h46q30 0 54.5 -13t42 -33.5t26.5 -46t9 -50.5q0 -27 -5.5 -53t-19 -53t-36 -56t-56.5 -62l-103 107q32 24 43.5 42.5t11.5 35.5q0 9 -10 21.5
t-24 12.5h-39q-43 0 -84.5 22t-74.5 58t-53 83.5t-20 98.5q0 48 22.5 102.5t59.5 110t85.5 109.5t100.5 101h-188z" />
    <glyph glyph-name="eta" unicode="&#x3b7;" horiz-adv-x="670" 
d="M84 323q0 17 -9.5 30.5t-34.5 13.5v147q80 0 125.5 -16t67.5 -57q16 22 38 38t47 26t51.5 14.5t52.5 4.5q96 0 141.5 -53.5t45.5 -144.5v-582h-181v515q0 38 -6 61.5t-16 37t-24 18t-30 4.5q-46 0 -66.5 -27.5t-20.5 -78.5v-274h-181v323z" />
    <glyph glyph-name="theta" unicode="&#x3b8;" horiz-adv-x="700" 
d="M237 331q13 -93 43.5 -145.5t69.5 -52.5t69.5 53.5t42.5 144.5h-225zM462 481q-5 43 -15.5 79t-25.5 62t-33.5 40.5t-37.5 14.5q-20 0 -37.5 -14t-32.5 -40t-26 -62t-16 -80h224zM350 830q67 0 124 -32t97.5 -89t63.5 -135t23 -170t-23 -170t-63.5 -134.5t-97.5 -88.5
t-124 -32q-68 0 -124.5 32t-97 88.5t-63.5 134.5t-23 170t23 170t63.5 135t97 89t124.5 32z" />
    <glyph glyph-name="iota" unicode="&#x3b9;" horiz-adv-x="325" 
d="M243 185q0 -17 9.5 -30.5t34.5 -13.5v-147q-40 0 -80 5t-72.5 24.5t-52.5 57.5t-20 104v328h181v-328z" />
    <glyph glyph-name="kappa" unicode="&#x3ba;" horiz-adv-x="671" 
d="M243 513v-190l174 190h231l-239 -242l244 -271h-236l-174 204v-204h-181v513h181z" />
    <glyph glyph-name="lambda" unicode="&#x3bb;" horiz-adv-x="644" 
d="M59 830h200l393 -830h-198l-135 299l-129 -299h-192l227 490z" />
    <glyph glyph-name="mu" unicode="&#x3bc;" horiz-adv-x="664" 
d="M243 513v-259q0 -67 16 -89q23 -32 68 -32q46 0 70.5 27.5t24.5 78.5v274h181v-513h-181v65q-14 -36 -42.5 -53.5t-62.5 -17.5q-40 0 -74 21v-271h-181v769h181z" />
    <glyph glyph-name="nu" unicode="&#x3bd;" horiz-adv-x="682" 
d="M269 0q0 41 -16.5 97t-47.5 109t-76.5 93.5t-103.5 51.5v181q79 -1 135.5 -29t95 -69.5t62.5 -90t38 -91.5l119 261h202l-267 -513h-141z" />
    <glyph glyph-name="xi" unicode="&#x3be;" horiz-adv-x="551" 
d="M42 252q0 91 53.5 151t149.5 80q-16 17 -27 43.5t-11 51.5q0 19 15.5 49t51.5 53h-156v150h444v-123q-37 -5 -69 -18t-55 -31t-36.5 -38t-13.5 -38q0 -26 4.5 -43t13.5 -31t23 -26.5t34 -28.5l-48 -112q-17 8 -32 10.5t-32 2.5q-24 0 -45.5 -6.5t-38 -19.5t-26.5 -31.5
t-10 -43.5q0 -27 9 -47.5t24 -34.5t33.5 -21t36.5 -7h46q30 0 54.5 -13t42 -33.5t26.5 -46t9 -50.5q0 -27 -5.5 -53t-19 -53t-36 -56t-56.5 -62l-103 107q32 24 43.5 42.5t11.5 35.5q0 8 -10 21t-24 13h-39q-43 0 -84.5 21t-74.5 56.5t-53 82t-20 97.5z" />
    <glyph glyph-name="omicron" unicode="&#x3bf;" horiz-adv-x="700" 
d="M233 259q0 -26 9.5 -47.5t25 -37.5t37 -25t45.5 -9t45.5 9t37 25t25 37.5t9.5 46.5q0 24 -9.5 45.5t-25 37.5t-37 25t-45.5 9t-45.5 -9t-37 -25t-25 -37t-9.5 -45zM42 261q0 57 23 106.5t64 86t97.5 57.5t123.5 21q66 0 122.5 -20.5t98 -57t64.5 -87t23 -111.5
t-23.5 -111.5t-64.5 -87t-98.5 -56.5t-124.5 -20q-66 0 -122 20t-96.5 57t-63.5 88.5t-23 114.5z" />
    <glyph glyph-name="pi" unicode="&#x3c0;" horiz-adv-x="716" 
d="M686 363h-68v-178q0 -17 9.5 -30.5t34.5 -13.5v-147q-40 0 -80 5t-72.5 24.5t-52.5 57.5t-20 104v178h-164v-363h-180v363h-68v150h661v-150z" />
    <glyph glyph-name="rho" unicode="&#x3c1;" horiz-adv-x="701" 
d="M62 -256v494q0 67 20.5 121.5t59.5 93t94.5 59t126.5 20.5q74 0 130 -21.5t93 -59.5t55.5 -89t18.5 -109q0 -66 -25.5 -117t-64 -85.5t-84.5 -52t-87 -17.5q-50 0 -89.5 15.5t-66.5 46.5v-299h-181zM356 376q-24 0 -45.5 -10t-38 -26.5t-26 -38t-9.5 -45.5t9.5 -46
t26 -38t38.5 -25.5t46 -9.5t45 9.5t37.5 25.5t26 37t9.5 44q0 25 -9.5 47.5t-25.5 39t-38 26.5t-46 10z" />
    <glyph glyph-name="sigma.end" unicode="&#x3c2;" horiz-adv-x="529" 
d="M292 -117q32 24 43.5 42.5t11.5 35.5q0 8 -10 21t-24 13h-39q-43 0 -84.5 22t-74.5 58.5t-53 84t-20 98.5q0 59 21.5 109t60 87t90.5 57.5t113 20.5q78 0 128 -18.5t79 -49.5l-100 -117q-14 14 -34 24t-45 10q-56 0 -90 -34t-34 -89q0 -27 9 -48.5t24 -36t33.5 -22.5
t36.5 -8h46q30 0 54.5 -13t42 -33.5t26.5 -46t9 -50.5q0 -27 -5.5 -53t-19 -53t-36 -56t-56.5 -62z" />
    <glyph glyph-name="sigma" unicode="&#x3c3;" horiz-adv-x="736" 
d="M718 513v-150h-77q10 -29 15 -53.5t5 -51.5q0 -61 -23 -112t-64.5 -87.5t-98.5 -57t-125 -20.5t-124.5 20.5t-97 57t-63.5 87t-23 111.5q0 60 23 110.5t63.5 87t97 57t124.5 20.5q32 0 61.5 -5t58.5 -14h248zM349 376q-24 0 -45 -9.5t-36.5 -25.5t-25 -37t-9.5 -45
q0 -25 9 -46.5t25 -37.5t37.5 -25.5t45.5 -9.5t45.5 9.5t37.5 25.5t25 37.5t9 45.5t-9 45.5t-25 37.5t-37.5 25.5t-46.5 9.5z" />
    <glyph glyph-name="tau" unicode="&#x3c4;" horiz-adv-x="485" 
d="M333 363v-178q0 -17 9.5 -30.5t34.5 -13.5v-147q-40 0 -80 5t-72.5 24.5t-52.5 57.5t-20 104v178h-127v150h435v-150h-127z" />
    <glyph glyph-name="upsilon" unicode="&#x3c5;" horiz-adv-x="669" 
d="M243 513v-289q0 -95 92 -95t92 95v289h181v-324q0 -104 -68.5 -156t-204.5 -52t-204.5 52t-68.5 156v324h181z" />
    <glyph glyph-name="phi" unicode="&#x3c6;" horiz-adv-x="876" 
d="M348 531h180q66 0 121 -20t95 -57t62 -88.5t22 -114.5q0 -57 -22 -106.5t-61.5 -86t-94.5 -57.5t-122 -21v-236h-180v236q-66 0 -121 20t-95 57t-62 88.5t-22 114.5q0 52 17 95.5t45 77t65 56t78 31.5l48 -149q-8 -2 -21.5 -11.5t-26 -24.5t-21.5 -35t-9 -42
q0 -26 10.5 -48.5t28 -39t40 -26.5t46.5 -10v397zM528 132q24 0 46.5 10t40 26.5t28 38.5t10.5 46q0 25 -10.5 48t-28 39.5t-40 26.5t-46.5 10v-245z" />
    <glyph glyph-name="chi" unicode="&#x3c7;" horiz-adv-x="619" 
d="M165 -256h-203l248 422l-198 347h197l97 -171l98 171h197l-198 -347l254 -422h-204l-147 270z" />
    <glyph glyph-name="psi" unicode="&#x3c8;" horiz-adv-x="874" 
d="M524 137q70 5 96.5 45.5t26.5 115.5v215h173v-244q0 -65 -16 -116.5t-51 -87.5t-91.5 -57t-137.5 -26v-238h-174v238q-82 5 -138.5 26.5t-91.5 58t-50.5 87t-15.5 115.5v244h173v-215q0 -36 5.5 -64.5t19.5 -49.5t37.5 -33t60.5 -14v376h174v-376z" />
    <glyph glyph-name="omega" unicode="&#x3c9;" horiz-adv-x="833" 
d="M500 329q0 -88 16.5 -128t49.5 -40q32 0 51 37.5t19 96.5q0 54 -33 107.5t-87 110.5h202q22 -32 38.5 -61t27.5 -57t16.5 -57.5t5.5 -63.5q0 -59 -17.5 -112.5t-49 -93.5t-75 -63.5t-94.5 -23.5q-28 0 -50 6t-40 21t-33.5 39.5t-29.5 61.5q-14 -37 -29.5 -61.5t-34 -39.5
t-40.5 -21t-50 -6q-49 0 -92 22t-75 61t-50.5 92.5t-18.5 117.5q0 34 5.5 63.5t17 58t28 57t37.5 60.5h196q-54 -57 -84 -110.5t-30 -107.5q0 -59 18.5 -96.5t50.5 -37.5q33 0 50 40.5t17 127.5h167z" />
    <glyph glyph-name="iotadieresis" unicode="&#x3ca;" horiz-adv-x="325" 
d="M243 185q0 -17 9.5 -30.5t34.5 -13.5v-147q-40 0 -80 5t-72.5 24.5t-52.5 57.5t-20 104v328h181v-328zM170 691q0 19 8 37t21.5 31t31 21t37.5 8t37.5 -8t31 -21.5t21.5 -31t8 -37.5t-8 -37.5t-21 -31t-31 -21.5t-37 -8q-42 0 -70.5 28.5t-28.5 70.5zM-63 691q0 19 8 37
t21.5 31t31 21t37.5 8q19 0 37 -8t31 -21.5t21 -31.5t8 -37q0 -20 -8 -37.5t-21 -31t-31 -21.5t-37 -8q-20 0 -37.5 7.5t-31 21t-21.5 31.5t-8 39z" />
    <glyph glyph-name="upsilondieresis" unicode="&#x3cb;" horiz-adv-x="669" 
d="M369 691q0 19 8 37t21.5 31t31 21t37.5 8t37.5 -8t31 -21.5t21.5 -31t8 -37.5t-8 -37.5t-21.5 -31t-31 -21.5t-37.5 -8t-38 7.5t-31.5 21t-21 31.5t-7.5 39zM113 691q0 20 7.5 37.5t21 31t31.5 21t38 7.5t38 -8t31 -21.5t20.5 -31t7.5 -37.5q0 -41 -28 -69.5t-69 -28.5
q-42 0 -70 28.5t-28 70.5zM243 513v-289q0 -95 92 -95t92 95v289h181v-324q0 -104 -68.5 -156t-204.5 -52t-204.5 52t-68.5 156v324h181z" />
    <glyph glyph-name="omicrontonos" unicode="&#x3cc;" horiz-adv-x="700" 
d="M233 259q0 -26 9.5 -47.5t25 -37.5t37 -25t45.5 -9t45.5 9t37 25t25 37.5t9.5 46.5q0 24 -9.5 45.5t-25 37.5t-37 25t-45.5 9t-45.5 -9t-37 -25t-25 -37t-9.5 -45zM42 261q0 57 23 106.5t64 86t97.5 57.5t123.5 21q66 0 122.5 -20.5t98 -57t64.5 -87t23 -111.5
t-23.5 -111.5t-64.5 -87t-98.5 -56.5t-124.5 -20q-66 0 -122 20t-96.5 57t-63.5 88.5t-23 114.5zM533 840l-126 -254h-108l78 254h156z" />
    <glyph glyph-name="upsilontonos" unicode="&#x3cd;" horiz-adv-x="669" 
d="M500 840l-126 -254h-108l78 254h156zM243 513v-289q0 -95 92 -95t92 95v289h181v-324q0 -104 -68.5 -156t-204.5 -52t-204.5 52t-68.5 156v324h181z" />
    <glyph glyph-name="omegatonos" unicode="&#x3ce;" horiz-adv-x="833" 
d="M500 329q0 -88 16.5 -128t49.5 -40q32 0 51 37.5t19 96.5q0 54 -33 107.5t-87 110.5h202q22 -32 38.5 -61t27.5 -57t16.5 -57.5t5.5 -63.5q0 -59 -17.5 -112.5t-49 -93.5t-75 -63.5t-94.5 -23.5q-28 0 -50 6t-40 21t-33.5 39.5t-29.5 61.5q-14 -37 -29.5 -61.5t-34 -39.5
t-40.5 -21t-50 -6q-49 0 -92 22t-75 61t-50.5 92.5t-18.5 117.5q0 34 5.5 63.5t17 58t28 57t37.5 60.5h196q-54 -57 -84 -110.5t-30 -107.5q0 -59 18.5 -96.5t50.5 -37.5q33 0 50 40.5t17 127.5h167zM585 840l-126 -254h-108l78 254h156z" />
    <glyph glyph-name="afii10023" unicode="&#x401;" horiz-adv-x="570" 
d="M508 588h-233v-126h220v-166h-220v-130h233v-166h-429v754h429v-166zM339 925q0 19 7.5 36.5t21 31t31.5 21t38 7.5t37.5 -7.5t31 -20.5t21.5 -31t8 -38q0 -42 -28.5 -70t-69.5 -28q-42 0 -70 28.5t-28 70.5zM67 925q0 19 7.5 36.5t21 31t31.5 21t38 7.5t37.5 -7.5
t31 -20.5t21.5 -31t8 -38q0 -21 -8 -38.5t-21 -31t-31 -21t-37 -7.5q-43 0 -71 29t-28 70z" />
    <glyph glyph-name="afii10051" unicode="&#x402;" horiz-adv-x="864" 
d="M525 588h-200v-67q35 5 63 6.5t55 1.5q176 0 273 -86q24 -21 40.5 -45t27.5 -53.5t15.5 -66.5t4.5 -85l-1 -193q-1 -31 -3 -52.5t-7.5 -38t-14 -29t-21.5 -25.5q-23 -23 -65 -39t-98 -16l-69 144q48 0 65.5 29t17.5 74v118q0 34 -1 56.5t-5 37.5t-10.5 26t-16.5 22
q-46 49 -149 49q-23 0 -46 -2t-55 -7v-347h-196v588h-121v166h517v-166z" />
    <glyph glyph-name="afii10052" unicode="&#x403;" horiz-adv-x="531" 
d="M79 0v754h431v-166h-235v-588h-196zM482 946l-192 -132l-76 71l163 156z" />
    <glyph glyph-name="afii10053" unicode="&#x404;" horiz-adv-x="667" 
d="M509 469v-169h-247q10 -28 28 -52t42.5 -42t55 -28t64.5 -10q49 0 90 19.5t79 59.5v-230q-35 -12 -59.5 -19.5t-43 -11.5t-35.5 -5.5t-37 -1.5q-83 0 -156 30.5t-127.5 83.5t-86 124.5t-31.5 154.5q0 88 31 162t85 127.5t127 83.5t157 30q43 0 83 -8.5t93 -30.5v-234
q-68 83 -169 83q-66 0 -112.5 -31t-71.5 -85h241z" />
    <glyph glyph-name="afii10054" unicode="&#x405;" horiz-adv-x="646" 
d="M493 561q-32 26 -64 38.5t-62 12.5q-38 0 -62 -18t-24 -47q0 -20 12 -33t31.5 -22.5t44 -16.5t48.5 -15q96 -32 140.5 -85.5t44.5 -139.5q0 -58 -19.5 -105t-57 -80.5t-92 -52t-123.5 -18.5q-143 0 -265 85l84 158q44 -39 87 -58t85 -19q48 0 71.5 22t23.5 50
q0 17 -6 29.5t-20 23t-36.5 19.5t-54.5 20q-38 12 -74.5 26.5t-65 38.5t-46 60.5t-17.5 92.5t18.5 101.5t52 78t82 50.5t108.5 18q56 0 117 -15.5t117 -45.5z" />
    <glyph glyph-name="afii10055" unicode="&#x406;" horiz-adv-x="354" 
d="M275 754v-754h-196v754h196z" />
    <glyph glyph-name="afii10056" unicode="&#x407;" horiz-adv-x="354" 
d="M275 754v-754h-196v754h196zM197 923q0 41 28 69.5t69 28.5t69.5 -28.5t28.5 -69.5t-28.5 -69t-69.5 -28t-69 28t-28 69zM-37 923q0 41 28 69.5t69 28.5t69.5 -28.5t28.5 -69.5t-28.5 -69t-69.5 -28t-69 28t-28 69z" />
    <glyph glyph-name="afii10057" unicode="&#x408;" horiz-adv-x="530" 
d="M450 754v-523q0 -33 -3.5 -61t-11.5 -48q-13 -32 -35.5 -58.5t-52.5 -45t-66.5 -29t-76.5 -10.5q-121 0 -197 111l128 131q5 -34 22 -54t42 -20q55 0 55 87v520h196z" />
    <glyph glyph-name="afii10058" unicode="&#x409;" horiz-adv-x="1123" 
d="M720 158h66q107 0 107 94q0 49 -25.5 71.5t-81.5 22.5h-66v-188zM843 503q125 0 190 -64t65 -189q0 -116 -68.5 -183t-193.5 -67h-312v588h-226v-356q0 -56 -17 -102t-49 -80t-77.5 -52.5t-102.5 -18.5h-15v170q4 -1 9 -1q57 0 57 87v519h617v-251h123z" />
    <glyph glyph-name="afii10059" unicode="&#x40a;" horiz-adv-x="1157" 
d="M731 158h89q107 0 107 94q0 49 -25.5 71.5t-82.5 22.5h-88v-188zM877 503q125 0 190 -64t65 -189q0 -57 -17 -103t-50 -78.5t-82 -50.5t-113 -18h-335v346h-260v-346h-196v754h196v-251h260v251h196v-251h146z" />
    <glyph glyph-name="afii10060" unicode="&#x40b;" horiz-adv-x="864" 
d="M525 588h-200v-67q35 5 63 6.5t55 1.5q176 0 273 -86q24 -21 40.5 -45t27 -53.5t15.5 -66.5t5 -85v-193h-196v165q0 34 -1 56.5t-5 37.5t-10.5 26t-16.5 22q-46 49 -149 49q-23 0 -46 -2t-55 -7v-347h-196v588h-121v166h517v-166z" />
    <glyph glyph-name="afii10061" unicode="&#x40c;" horiz-adv-x="792" 
d="M275 443l239 311h242l-299 -357l327 -397h-254l-255 327v-327h-196v754h196v-311zM599 946l-192 -132l-76 71l163 156z" />
    <glyph glyph-name="afii10062" unicode="&#x40e;" horiz-adv-x="761" 
d="M3 754h233l153 -284l169 284h217l-491 -754h-197l184 292zM323 1000q15 -67 88 -67q74 0 89 67h127q-4 -81 -62 -128q-55 -46 -154 -46q-96 0 -154 46q-56 46 -61 128h127z" />
    <glyph glyph-name="afii10145" unicode="&#x40f;" horiz-adv-x="833" 
d="M79 0v754h196v-588h283v588h196v-754h-240v-141h-195v141h-240z" />
    <glyph glyph-name="afii10017" unicode="&#x410;" horiz-adv-x="803" 
d="M489 280l-88 251l-88 -251h176zM541 131h-280l-45 -131h-209l287 754h214l287 -754h-209z" />
    <glyph glyph-name="afii10018" unicode="&#x411;" horiz-adv-x="701" 
d="M421 503q125 0 190 -64t65 -189q0 -57 -17 -103t-50 -78.5t-82 -50.5t-113 -18h-335v754h456v-166h-260v-85h146zM275 158h89q107 0 107 94q0 49 -25.5 71.5t-82.5 22.5h-88v-188z" />
    <glyph glyph-name="afii10019" unicode="&#x412;" horiz-adv-x="692" 
d="M275 152h43q74 0 106 19t32 61t-32 61t-106 19h-43v-160zM275 458h36q92 0 92 73t-92 73h-36v-146zM79 754h292q104 0 158 -50t54 -144q0 -57 -20.5 -94.5t-62.5 -63.5q42 -8 71.5 -24.5t48 -40.5t26.5 -54t8 -64q0 -53 -18.5 -94t-52 -69t-81.5 -42t-108 -14h-315v754z
" />
    <glyph glyph-name="afii10020" unicode="&#x413;" horiz-adv-x="531" 
d="M79 0v754h431v-166h-235v-588h-196z" />
    <glyph glyph-name="afii10021" unicode="&#x414;" horiz-adv-x="912" 
d="M590 588h-226v-336q0 -29 -1.5 -49t-6.5 -37h234v422zM107 166q38 0 49.5 22.5t11.5 65.5v500h618v-588h95v-307h-195v141h-453v-141h-195v307h69z" />
    <glyph glyph-name="afii10022" unicode="&#x415;" horiz-adv-x="570" 
d="M508 588h-233v-126h220v-166h-220v-130h233v-166h-429v754h429v-166z" />
    <glyph glyph-name="afii10024" unicode="&#x416;" horiz-adv-x="1274" 
d="M735 429l269 325h242l-323 -358l351 -396h-254l-285 336v-336h-196v336l-285 -336h-254l351 396l-323 358h242l269 -325v325h196v-325z" />
    <glyph glyph-name="afii10025" unicode="&#x417;" horiz-adv-x="594" 
d="M83 768q27 4 55.5 6t57.5 2q147 0 227.5 -55t80.5 -152q0 -56 -29 -98t-92 -71q76 -23 113.5 -70t37.5 -116q0 -54 -23 -98t-66.5 -76t-106 -49.5t-142.5 -17.5q-35 0 -61.5 2t-51.5 6v191q22 -5 42.5 -7t45.5 -2q74 0 113 21t39 56q0 18 -7.5 30t-25 19.5t-47 11
t-72.5 3.5h-14t-18 -1v155q18 0 44.5 0.5t51 6t42.5 19.5t18 42q0 29 -30.5 44.5t-87.5 15.5q-24 0 -46 -2t-48 -7v191z" />
    <glyph glyph-name="afii10026" unicode="&#x418;" horiz-adv-x="911" 
d="M275 754v-462l361 462h196v-754h-196v461l-361 -461h-196v754h196z" />
    <glyph glyph-name="afii10027" unicode="&#x419;" horiz-adv-x="911" 
d="M275 754v-462l361 462h196v-754h-196v461l-361 -461h-196v754h196zM374 1000q15 -67 88 -67q74 0 89 67h127q-4 -81 -62 -128q-55 -46 -154 -46q-96 0 -154 46q-56 46 -61 128h127z" />
    <glyph glyph-name="afii10028" unicode="&#x41a;" horiz-adv-x="792" 
d="M275 443l239 311h242l-299 -357l327 -397h-254l-255 327v-327h-196v754h196v-311z" />
    <glyph glyph-name="afii10029" unicode="&#x41b;" horiz-adv-x="799" 
d="M37 149q4 -1 9 -1q57 0 57 87v519h617v-754h-196v588h-226v-356q0 -56 -17 -102t-49 -80t-77.5 -52.5t-102.5 -18.5h-15v170z" />
    <glyph glyph-name="afii10030" unicode="&#x41c;" horiz-adv-x="1035" 
d="M45 0l128 754h194l151 -402l150 402h194l128 -754h-195l-65 434l-178 -434h-78l-169 434l-65 -434h-195z" />
    <glyph glyph-name="afii10031" unicode="&#x41d;" horiz-adv-x="833" 
d="M275 463h283v291h196v-754h-196v311h-283v-311h-196v754h196v-291z" />
    <glyph glyph-name="afii10032" unicode="&#x41e;" horiz-adv-x="925" 
d="M250 377q0 -45 17 -83t46 -66t67.5 -43.5t81.5 -15.5t81.5 15.5t68 43.5t46.5 66t17 83t-17 83t-46.5 66t-68 43.5t-81.5 15.5t-81.5 -15.5t-67.5 -43.5t-46 -66t-17 -83zM45 377q0 84 31 156.5t86 126.5t131.5 84.5t168.5 30.5q91 0 168 -30.5t132.5 -84.5t86.5 -126.5
t31 -156.5t-31 -156.5t-86.5 -126.5t-132.5 -84.5t-168 -30.5q-92 0 -168.5 30.5t-131.5 84.5t-86 126.5t-31 156.5z" />
    <glyph glyph-name="afii10033" unicode="&#x41f;" horiz-adv-x="833" 
d="M754 0h-196v588h-283v-588h-196v754h675v-754z" />
    <glyph glyph-name="afii10034" unicode="&#x420;" horiz-adv-x="678" 
d="M275 408h65q108 0 108 94t-108 94h-65v-188zM275 0h-196v754h312q127 0 194.5 -66t67.5 -186t-67.5 -186t-194.5 -66h-116v-250z" />
    <glyph glyph-name="afii10035" unicode="&#x421;" horiz-adv-x="667" 
d="M622 502q-68 83 -168 83q-44 0 -81.5 -16t-64.5 -43.5t-42.5 -65.5t-15.5 -82q0 -45 15.5 -83t43 -66t64.5 -44t80 -16q94 0 169 80v-232l-20 -7q-45 -16 -84 -23.5t-77 -7.5q-78 0 -149.5 29.5t-126 83t-87.5 127t-33 160.5t32.5 159.5t87 125t126.5 82t151 29.5
q45 0 88.5 -9.5t91.5 -29.5v-234z" />
    <glyph glyph-name="afii10036" unicode="&#x422;" horiz-adv-x="534" 
d="M365 588v-588h-196v588h-161v166h518v-166h-161z" />
    <glyph glyph-name="afii10037" unicode="&#x423;" horiz-adv-x="761" 
d="M3 754h233l153 -284l169 284h217l-491 -754h-197l184 292z" />
    <glyph glyph-name="afii10038" unicode="&#x424;" horiz-adv-x="1016" 
d="M411 555q-35 0 -66 -14t-53.5 -38t-35.5 -56.5t-13 -69.5t13 -69.5t35.5 -56.5t53.5 -38t66 -14h6v356h-6zM599 199h5q35 0 66 14t54 38t36 56.5t13 69.5t-13 69.5t-36 56.5t-54 38t-66 14h-5v-356zM417 13q-85 6 -154 36.5t-117.5 79t-74.5 112t-26 135.5q0 73 26 137
t74.5 112t117 78.5t154.5 37.5v73h182v-73q85 -7 154 -37.5t117.5 -78.5t74.5 -112t26 -137q0 -71 -26.5 -134.5t-75.5 -112.5t-117.5 -79.5t-152.5 -36.5v-73h-182v73z" />
    <glyph glyph-name="afii10039" unicode="&#x425;" horiz-adv-x="804" 
d="M295 402l-235 352h242l102 -195l126 195h242l-249 -352l281 -402h-239l-151 246l-177 -246h-237z" />
    <glyph glyph-name="afii10040" unicode="&#x426;" horiz-adv-x="880" 
d="M849 166v-307h-195v141h-575v754h196v-588h283v588h196v-588h95z" />
    <glyph glyph-name="afii10041" unicode="&#x427;" horiz-adv-x="833" 
d="M558 209q-35 -5 -63 -6.5t-55 -1.5q-86 0 -153.5 19t-113.5 60t-70 104.5t-24 152.5v217h196v-189q0 -54 8.5 -90.5t29.5 -59t56 -32t88 -9.5q23 0 46 2t55 7v371h196v-754h-196v209z" />
    <glyph glyph-name="afii10042" unicode="&#x428;" horiz-adv-x="1145" 
d="M79 0v754h196v-588h200v588h195v-588h200v588h196v-754h-987z" />
    <glyph glyph-name="afii10043" unicode="&#x429;" horiz-adv-x="1192" 
d="M1161 166v-307h-195v141h-887v754h196v-588h200v588h195v-588h200v588h196v-588h95z" />
    <glyph glyph-name="afii10044" unicode="&#x42a;" horiz-adv-x="831" 
d="M551 503q125 0 190 -64t65 -189q0 -57 -17 -103t-50 -78.5t-82 -50.5t-113 -18h-335v588h-194v166h390v-251h146zM405 158h89q107 0 107 94q0 49 -25.5 71.5t-82.5 22.5h-88v-188z" />
    <glyph glyph-name="afii10045" unicode="&#x42b;" horiz-adv-x="1044" 
d="M965 754v-754h-196v754h196zM275 158h89q107 0 107 94q0 49 -25.5 71.5t-82.5 22.5h-88v-188zM421 503q125 0 190 -64t65 -189q0 -57 -17 -103t-50 -78.5t-82 -50.5t-113 -18h-335v754h196v-251h146z" />
    <glyph glyph-name="afii10046" unicode="&#x42c;" horiz-adv-x="701" 
d="M275 158h89q107 0 107 94q0 49 -25.5 71.5t-82.5 22.5h-88v-188zM421 503q125 0 190 -64t65 -189q0 -57 -17 -103t-50 -78.5t-82 -50.5t-113 -18h-335v754h196v-251h146z" />
    <glyph glyph-name="afii10047" unicode="&#x42d;" horiz-adv-x="667" 
d="M398 464q-24 54 -70.5 85t-112.5 31q-53 0 -94.5 -20.5t-75.5 -62.5v234q53 22 93 30.5t83 8.5q84 0 157 -30t127 -83.5t85 -126.5t31 -160q0 -83 -31.5 -154t-86.5 -123.5t-128 -82.5t-155 -30q-20 0 -36.5 1.5t-35.5 5.5t-43.5 11.5t-59.5 19.5v230q38 -40 79.5 -59.5
t90.5 -19.5q68 0 118.5 36t70.5 93h-246v166h240z" />
    <glyph glyph-name="afii10048" unicode="&#x42e;" horiz-adv-x="1243" 
d="M568 377q0 -44 16.5 -83t45.5 -68t67.5 -46t83.5 -17q43 0 81.5 16.5t67.5 45t46 67.5t17 83t-17 82.5t-46.5 67t-68 45t-81.5 16.5q-42 0 -80.5 -16.5t-68 -45t-46.5 -66.5t-17 -81zM275 0h-196v754h196v-302h94q12 70 49 129.5t92 102.5t124 67.5t146 24.5
q90 0 166.5 -31t132.5 -85.5t87.5 -127.5t31.5 -157t-31.5 -157.5t-87.5 -127.5t-133.5 -85.5t-168.5 -31.5q-74 0 -141 22.5t-120.5 64t-90.5 99t-52 127.5h-98v-286z" />
    <glyph glyph-name="afii10049" unicode="&#x42f;" horiz-adv-x="709" 
d="M435 603h-38q-57 0 -88.5 -24t-31.5 -69t31.5 -69t88.5 -24h38v186zM240 309q-81 19 -122.5 72.5t-41.5 139.5q0 49 16.5 91.5t48 74t78 49.5t106.5 18h305v-754h-195v290l-187 -290h-245z" />
    <glyph glyph-name="afii10065" unicode="&#x430;" horiz-adv-x="701" 
d="M230 258q0 -25 9 -46.5t24.5 -37.5t37 -25t46.5 -9q24 0 45.5 9t37 25t25 37t9.5 45t-9.5 45.5t-25 37.5t-37 25t-45.5 9q-25 0 -46.5 -9t-37 -25t-24.5 -36.5t-9 -44.5zM458 513h182v-513h-182v57q-58 -73 -157 -73q-56 0 -103 20.5t-82 57.5t-54.5 87t-19.5 109
q0 55 19 104.5t53 86.5t81 58.5t104 21.5q96 0 159 -67v51z" />
    <glyph glyph-name="afii10066" unicode="&#x431;" horiz-adv-x="700" 
d="M350 375q-24 0 -45.5 -9t-37 -25t-25 -37t-9.5 -46q0 -24 9 -45.5t24.5 -37.5t37 -25.5t46.5 -9.5q24 0 45.5 9.5t37.5 25.5t25 37.5t9 45.5t-9 45.5t-25 37.5t-37.5 25t-45.5 9zM552 652q-14 -13 -25.5 -21.5t-27.5 -15.5t-40 -15t-63 -20q-34 -11 -55 -18t-34 -13
t-20.5 -12.5t-14.5 -15.5l-6 -8q23 9 46.5 14t53.5 5q61 0 114.5 -21t93.5 -58t62.5 -88t22.5 -112q0 -59 -22.5 -109t-63.5 -86t-100 -56.5t-132 -20.5q-67 0 -122 19t-94.5 59t-61 102.5t-21.5 149.5q0 140 56 238.5t162 143.5q13 6 21 8.5t17.5 5t24 7t42.5 13.5
q44 14 74 25t51 22.5t35 24.5t27 31v-178z" />
    <glyph glyph-name="afii10067" unicode="&#x432;" horiz-adv-x="570" 
d="M330 126q21 0 32 12t11 32q0 43 -43 43h-99v-87h99zM317 315q29 0 29 37t-29 37h-86v-74h86zM62 513h272q76 0 115.5 -34.5t39.5 -99.5q0 -38 -12 -62t-41 -41q105 -21 105 -127q0 -71 -53.5 -110t-147.5 -39h-278v513z" />
    <glyph glyph-name="afii10068" unicode="&#x433;" horiz-adv-x="403" 
d="M62 0v513h321v-151h-141v-362h-180z" />
    <glyph glyph-name="afii10069" unicode="&#x434;" horiz-adv-x="728" 
d="M444 362h-137v-154q0 -20 -1 -32t-3 -25h141v211zM78 151q27 0 37 18t10 56v288h500v-362h61v-256h-181v105h-271v-105h-181v256h25z" />
    <glyph glyph-name="afii10070" unicode="&#x435;" horiz-adv-x="647" 
d="M437 331q-9 38 -37 61t-68 23q-42 0 -68.5 -22t-33.5 -62h207zM225 226q0 -117 110 -117q59 0 89 48h175q-53 -176 -265 -176q-65 0 -119 19.5t-92.5 55.5t-59.5 86t-21 112q0 64 20 115.5t57 87.5t89.5 55.5t118.5 19.5q65 0 117 -19.5t88 -56.5t55 -90.5t19 -120.5v-19
h-381z" />
    <glyph glyph-name="afii10072" unicode="&#x436;" horiz-adv-x="967" 
d="M739 513h194l-214 -246l240 -267h-205l-179 208v-208h-181v208l-181 -208h-205l241 267l-214 246h194l165 -210v210h181v-210z" />
    <glyph glyph-name="afii10073" unicode="&#x437;" horiz-adv-x="441" 
d="M53 520q25 5 49.5 8.5t52.5 3.5q49 0 91 -11t72.5 -31t47.5 -47t17 -58q0 -34 -20.5 -61.5t-65.5 -50.5q54 -17 78.5 -46.5t24.5 -74.5q0 -37 -17.5 -68.5t-50 -54t-77.5 -35.5t-99 -13q-26 0 -53 3t-50 10v146q14 -5 32.5 -7.5t35.5 -2.5q36 0 61.5 10.5t25.5 25.5
q0 17 -29 29.5t-76 12.5h-8v106q54 1 78.5 10t24.5 26q0 16 -17 24t-46 8q-21 0 -43 -3.5t-39 -8.5v150z" />
    <glyph glyph-name="afii10074" unicode="&#x438;" horiz-adv-x="701" 
d="M243 513v-287l215 287h181v-513h-181v286l-216 -286h-180v513h181z" />
    <glyph glyph-name="afii10075" unicode="&#x439;" horiz-adv-x="701" 
d="M243 513v-287l215 287h181v-513h-181v286l-216 -286h-180v513h181zM546 785q-9 -189 -197 -189q-189 0 -198 189h116q10 -82 82 -82q70 0 82 82h115z" />
    <glyph glyph-name="afii10076" unicode="&#x43a;" horiz-adv-x="614" 
d="M393 513h193l-203 -246l230 -267h-207l-163 205v-205h-181v513h181v-206z" />
    <glyph glyph-name="afii10077" unicode="&#x43b;" horiz-adv-x="660" 
d="M38 149q3 -1 9 -1q13 0 23 2t16 8.5t9 19.5t3 34v301h500v-513h-181v362h-138v-170q0 -55 -16.5 -95t-45.5 -66t-70.5 -38.5t-90.5 -12.5h-18v169z" />
    <glyph glyph-name="afii10078" unicode="&#x43c;" horiz-adv-x="740" 
d="M331 0l-111 302l-50 -302h-153l98 513h149l106 -277l106 277h149l98 -513h-154l-49 302l-111 -302h-78z" />
    <glyph glyph-name="afii10079" unicode="&#x43d;" horiz-adv-x="670" 
d="M427 336v177h181v-513h-181v187h-184v-187h-181v513h181v-177h184z" />
    <glyph glyph-name="afii10080" unicode="&#x43e;" horiz-adv-x="700" 
d="M233 259q0 -26 9.5 -47.5t25 -37.5t37 -25t45.5 -9t45.5 9t37 25t25 37.5t9.5 46.5q0 24 -9.5 45.5t-25 37.5t-37 25t-45.5 9t-45.5 -9t-37 -25t-25 -37t-9.5 -45zM42 261q0 57 23 106.5t64 86t97.5 57.5t123.5 21q66 0 122.5 -20.5t98 -57t64.5 -87t23 -111.5
t-23.5 -111.5t-64.5 -87t-98.5 -56.5t-124.5 -20q-66 0 -122 20t-96.5 57t-63.5 88.5t-23 114.5z" />
    <glyph glyph-name="afii10081" unicode="&#x43f;" horiz-adv-x="670" 
d="M608 0h-181v362h-184v-362h-181v513h546v-513z" />
    <glyph glyph-name="afii10082" unicode="&#x440;" horiz-adv-x="701" 
d="M471 255q0 24 -8.5 45.5t-24.5 37.5t-37.5 25.5t-46.5 9.5q-24 0 -45 -9t-36.5 -25t-25 -37.5t-9.5 -45.5t9 -45t25 -36.5t37.5 -25t45.5 -9.5t45 9t36.5 25t25 37t9.5 44zM243 -256h-181v769h181v-57q58 73 158 73q55 0 102.5 -21.5t82.5 -58.5t54.5 -87t19.5 -107
t-19.5 -106t-54 -86t-81.5 -58t-102 -21q-96 0 -160 66v-306z" />
    <glyph glyph-name="afii10083" unicode="&#x441;" horiz-adv-x="490" 
d="M449 347q-47 32 -95 32q-26 0 -48.5 -9t-39.5 -25.5t-26.5 -39t-9.5 -50.5q0 -27 9.5 -49.5t26 -39t39.5 -25.5t49 -9q51 0 95 35v-154q-67 -29 -127 -29q-56 0 -106.5 19t-89 54.5t-61.5 85t-23 110.5t22 111.5t60 87t90.5 57t112.5 20.5q66 0 122 -28v-154z" />
    <glyph glyph-name="afii10084" unicode="&#x442;" horiz-adv-x="460" 
d="M441 362h-120v-362h-181v362h-120v151h421v-151z" />
    <glyph glyph-name="afii10085" unicode="&#x443;" horiz-adv-x="688" 
d="M248 70l-248 443h210l137 -263l133 263h208l-412 -769h-203z" />
    <glyph glyph-name="afii10086" unicode="&#x444;" horiz-adv-x="851" 
d="M221 256q0 -23 8.5 -43.5t24 -37t38 -26t50.5 -9.5v233q-28 0 -50.5 -9.5t-38 -26t-24 -37.5t-8.5 -44zM629 256q0 23 -8.5 44t-24 37.5t-38 26t-50.5 9.5v-233q28 0 50.5 9.5t38 26t24 37t8.5 43.5zM342 -256v246q-16 -4 -31.5 -5t-34.5 -1q-52 0 -95 20t-74 55.5
t-48 85.5t-17 110q0 61 17 111.5t48 86.5t74 56t95 20q18 0 34 -1.5t32 -6.5v202h166v-202q17 5 32.5 6.5t32.5 1.5q52 0 95.5 -20t74.5 -56t48.5 -86.5t17.5 -110.5q0 -61 -17.5 -111t-48.5 -86t-74.5 -55.5t-95.5 -19.5q-17 0 -32.5 1t-32.5 5v-246h-166z" />
    <glyph glyph-name="afii10087" unicode="&#x445;" horiz-adv-x="742" 
d="M256 278l-208 235h236l88 -106l90 106h236l-213 -235l257 -278h-240l-131 152l-132 -152h-239z" />
    <glyph glyph-name="afii10088" unicode="&#x446;" horiz-adv-x="710" 
d="M669 151v-256h-181v105h-426v513h181v-362h184v362h181v-362h61z" />
    <glyph glyph-name="afii10089" unicode="&#x447;" horiz-adv-x="614" 
d="M371 122q-18 -4 -36.5 -6.5t-39.5 -2.5q-68 0 -117 18.5t-80 54t-45.5 87.5t-14.5 119v121h181v-127q0 -39 6.5 -63.5t18.5 -37.5t28 -17.5t35 -4.5q39 0 64 25v225h181v-513h-181v122z" />
    <glyph glyph-name="afii10090" unicode="&#x448;" horiz-adv-x="907" 
d="M62 0v513h181v-362h120v362h181v-362h120v362h181v-513h-783z" />
    <glyph glyph-name="afii10091" unicode="&#x449;" horiz-adv-x="947" 
d="M62 0v513h181v-362h120v362h181v-362h120v362h181v-362h61v-256h-181v105h-663z" />
    <glyph glyph-name="afii10092" unicode="&#x44a;" horiz-adv-x="634" 
d="M310 513v-152h105q92 0 140 -42.5t48 -123.5q0 -44 -13 -79.5t-38.5 -61.5t-62.5 -40t-86 -14h-275v362h-120v151h302zM309 130h70q54 0 54 51q0 49 -54 49h-70v-100z" />
    <glyph glyph-name="afii10093" unicode="&#x44b;" horiz-adv-x="853" 
d="M791 513v-513h-181v513h181zM241 130h70q54 0 54 51q0 49 -54 49h-70v-100zM241 513v-152h106q92 0 140 -42.5t48 -123.5q0 -44 -13 -79.5t-38.5 -61.5t-62.5 -40t-86 -14h-275v513h181z" />
    <glyph glyph-name="afii10094" unicode="&#x44c;" horiz-adv-x="569" 
d="M244 130h70q54 0 54 51q0 49 -54 49h-70v-100zM244 513v-152h106q92 0 140 -42.5t48 -123.5q0 -44 -13 -79.5t-38.5 -61.5t-62.5 -40t-86 -14h-275v513h181z" />
    <glyph glyph-name="afii10095" unicode="&#x44d;" horiz-adv-x="490" 
d="M249 310q-16 33 -45.5 50.5t-67.5 17.5q-26 0 -47.5 -7.5t-46.5 -24.5v154q31 15 58.5 21.5t63.5 6.5q61 0 113.5 -21t90.5 -58t59.5 -87.5t21.5 -109.5q0 -57 -21.5 -106t-59.5 -85t-89.5 -57t-110.5 -21q-34 0 -63.5 7.5t-62.5 21.5v154q44 -35 94 -35q38 0 69.5 19.5
t45.5 54.5h-118v105h116z" />
    <glyph glyph-name="afii10096" unicode="&#x44e;" horiz-adv-x="976" 
d="M509 259q0 -26 9.5 -47.5t25 -37.5t37 -25t45.5 -9t45.5 9t37.5 25t25 37.5t9 46.5q0 24 -9.5 45.5t-25 37.5t-37 25t-45.5 9t-45.5 -9t-37 -25t-25 -37t-9.5 -45zM243 0h-181v513h181v-177h85q13 44 41 80.5t67 62t87.5 39.5t102.5 14q67 0 124 -21t98 -58t64 -87.5
t23 -109.5q0 -61 -23.5 -111.5t-64.5 -87t-98.5 -56.5t-124.5 -20q-56 0 -105.5 14.5t-88.5 41.5t-66 65t-38 85h-83v-187z" />
    <glyph glyph-name="afii10097" unicode="&#x44f;" horiz-adv-x="591" 
d="M348 381h-56q-26 0 -41 -14.5t-15 -39.5q0 -26 15 -40.5t41 -14.5h56v109zM161 174q-44 14 -68 55t-24 101q0 38 12.5 71.5t37.5 58t62 39t86 14.5h262v-513h-181v160h-31l-88 -160h-191z" />
    <glyph glyph-name="afii10071" unicode="&#x451;" horiz-adv-x="647" 
d="M437 331q-9 38 -37 61t-68 23q-42 0 -68.5 -22t-33.5 -62h207zM225 226q0 -117 110 -117q59 0 89 48h175q-53 -176 -265 -176q-65 0 -119 19.5t-92.5 55.5t-59.5 86t-21 112q0 64 20 115.5t57 87.5t89.5 55.5t118.5 19.5q65 0 117 -19.5t88 -56.5t55 -90.5t19 -120.5v-19
h-381zM363 691q0 19 8 37t21.5 31t31 21t37.5 8t37.5 -8t31 -21.5t21.5 -31t8 -37.5t-8 -37.5t-21.5 -31t-31 -21.5t-37.5 -8t-38 7.5t-31.5 21t-21 31.5t-7.5 39zM107 691q0 20 7.5 37.5t21 31t31.5 21t38 7.5t38 -8t31 -21.5t20.5 -31t7.5 -37.5q0 -41 -28 -69.5
t-69 -28.5q-42 0 -70 28.5t-28 70.5z" />
    <glyph glyph-name="afii10099" unicode="&#x452;" horiz-adv-x="676" 
d="M485 727v-136h-229v-143q35 42 72.5 59t90.5 17q43 0 79 -12t62 -36.5t40.5 -61.5t14.5 -88v-384q0 -91 -49 -144.5t-146 -53.5l-69 144q19 0 34.5 4.5t26.5 17t17 34.5t6 56v268q0 24 -3.5 44.5t-13 35.5t-26 23.5t-41.5 8.5q-42 0 -68.5 -24.5t-26.5 -80.5v-275h-181
v591h-67v136h67v102h181v-102h229z" />
    <glyph glyph-name="afii10100" unicode="&#x453;" horiz-adv-x="403" 
d="M62 0v513h321v-151h-141v-362h-180zM395 742l-174 -154l-84 62l143 175z" />
    <glyph glyph-name="afii10101" unicode="&#x454;" horiz-adv-x="490" 
d="M357 310v-105h-118q14 -35 45.5 -54.5t69.5 -19.5q27 0 49.5 8.5t45.5 26.5v-154q-34 -14 -63.5 -21.5t-63.5 -7.5q-59 0 -110.5 20.5t-89 57t-59 85.5t-21.5 106q0 59 21.5 109.5t59.5 87.5t90 58t114 21q35 0 62.5 -6.5t59.5 -21.5v-154q-26 17 -47.5 24.5t-47.5 7.5
q-38 0 -67.5 -17.5t-45.5 -50.5h116z" />
    <glyph glyph-name="afii10102" unicode="&#x455;" horiz-adv-x="509" 
d="M402 381q-50 26 -98 26q-25 0 -40.5 -10t-15.5 -27q0 -9 2.5 -14.5t11 -10.5t25 -9t43.5 -10q75 -15 112 -53.5t37 -98.5q0 -45 -18 -81t-50 -60.5t-77 -38t-99 -13.5q-104 0 -205 59l66 128q76 -52 144 -52q25 0 41 11t16 28q0 10 -2.5 16.5t-10.5 12t-23.5 10
t-40.5 9.5q-84 17 -117.5 50.5t-33.5 92.5q0 43 16 77.5t46 58.5t72.5 37t94.5 13q85 0 165 -33z" />
    <glyph glyph-name="afii10103" unicode="&#x456;" horiz-adv-x="305" 
d="M243 513v-513h-181v513h181zM50 710q0 21 8 39.5t22 32.5t32.5 22t39.5 8t39.5 -8t32.5 -22t22 -32.5t8 -39.5t-8 -39.5t-22 -32.5t-32.5 -22t-39.5 -8t-39.5 8t-32.5 22t-22 32.5t-8 39.5z" />
    <glyph glyph-name="afii10104" unicode="&#x457;" horiz-adv-x="305" 
d="M243 513v-513h-181v513h181zM174 691q0 19 8 37t21.5 31t31 21t37.5 8t37.5 -8t31 -21.5t21.5 -31t8 -37.5t-8 -37.5t-21 -31t-31 -21.5t-37 -8q-42 0 -70.5 28.5t-28.5 70.5zM-59 691q0 19 8 37t21.5 31t31 21t37.5 8q19 0 37 -8t31 -21.5t21 -31.5t8 -37
q0 -20 -8 -37.5t-21 -31t-31 -21.5t-37 -8q-20 0 -37.5 7.5t-31 21t-21.5 31.5t-8 39z" />
    <glyph glyph-name="afii10105" unicode="&#x458;" horiz-adv-x="305" 
d="M243 513v-769h-181v769h181zM50 710q0 21 8 39.5t22 32.5t32.5 22t39.5 8t39.5 -8t32.5 -22t22 -32.5t8 -39.5t-8 -39.5t-22 -32.5t-32.5 -22t-39.5 -8t-39.5 8t-32.5 22t-22 32.5t-8 39.5z" />
    <glyph glyph-name="afii10106" unicode="&#x459;" horiz-adv-x="890" 
d="M585 130h51q53 0 53 51q0 49 -53 49h-51v-100zM38 149q4 -1 9 -1q51 0 51 45v320h487v-152h86q92 0 140 -42.5t48 -123.5q0 -90 -51 -142.5t-148 -52.5h-256v362h-125v-170q0 -55 -16.5 -95t-45.5 -66t-70.5 -38.5t-90.5 -12.5h-18v169z" />
    <glyph glyph-name="afii10107" unicode="&#x45a;" horiz-adv-x="913" 
d="M588 130h70q54 0 54 51q0 49 -54 49h-70v-100zM588 513v-152h106q92 0 140 -42.5t48 -123.5q0 -44 -13 -79.5t-38.5 -61.5t-62.5 -40t-86 -14h-275v219h-164v-219h-181v513h181v-152h164v152h181z" />
    <glyph glyph-name="afii10108" unicode="&#x45b;" horiz-adv-x="685" 
d="M492 727v-136h-229v-143q35 43 73 59.5t91 16.5q42 0 78 -11.5t62.5 -36t41 -62t14.5 -88.5v-326h-181v259q0 70 -19.5 95.5t-63.5 25.5q-50 0 -73 -29t-23 -76v-275h-181v591h-67v136h67v101h181v-101h229z" />
    <glyph glyph-name="afii10109" unicode="&#x45c;" horiz-adv-x="614" 
d="M393 513h193l-203 -246l230 -267h-207l-163 205v-205h-181v513h181v-206zM491 742l-174 -154l-84 62l143 175z" />
    <glyph glyph-name="afii10110" unicode="&#x45e;" horiz-adv-x="688" 
d="M248 70l-248 443h210l137 -263l133 263h208l-412 -769h-203zM551 785q-9 -189 -197 -189q-189 0 -198 189h116q10 -82 82 -82q70 0 82 82h115z" />
    <glyph glyph-name="afii10193" unicode="&#x45f;" horiz-adv-x="670" 
d="M62 0v513h181v-362h184v362h181v-513h-183v-105h-180v105h-183z" />
    <glyph glyph-name="afii10050" unicode="&#x490;" horiz-adv-x="537" 
d="M510 588h-235v-588h-196v754h235v76h196v-242z" />
    <glyph glyph-name="afii10098" unicode="&#x491;" horiz-adv-x="442" 
d="M423 362h-180v-362h-181v513h180v83h181v-234z" />
    <glyph glyph-name="Eszett" unicode="&#x1e9e;" horiz-adv-x="852" 
d="M79 0v473q0 57 18.5 108t55 89.5t90 61t122.5 22.5h462l-195 -316q46 -16 76.5 -39.5t48.5 -52t25 -60.5t7 -66q0 -50 -18.5 -94t-52.5 -76.5t-81 -51.5t-104 -19q-124 0 -239 61l104 141q31 -26 54 -33t55 -7q35 0 56 23t21 52q0 27 -14.5 50t-41.5 40.5t-64 29
t-82 14.5l152 238h-149q-48 0 -79 -33.5t-31 -90.5v-464h-196z" />
    <glyph glyph-name="endash" unicode="&#x2013;" horiz-adv-x="679" 
d="M72 343h535v-151h-535v151z" />
    <glyph glyph-name="emdash" unicode="&#x2014;" horiz-adv-x="867" 
d="M0 343h867v-151h-867v151z" />
    <glyph glyph-name="uni2015" unicode="&#x2015;" horiz-adv-x="867" 
d="M0 343h867v-151h-867v151z" />
    <glyph glyph-name="quoteleft" unicode="&#x2018;" horiz-adv-x="391" 
d="M223 422h-170l184 332h116z" />
    <glyph glyph-name="quoteright" unicode="&#x2019;" horiz-adv-x="391" 
d="M167 754h171l-184 -332h-116z" />
    <glyph glyph-name="quotesinglbase" unicode="&#x201a;" horiz-adv-x="391" 
d="M167 191h171l-184 -331h-116z" />
    <glyph glyph-name="quotedblleft" unicode="&#x201c;" horiz-adv-x="647" 
d="M223 422h-170l184 332h116zM479 422h-170l184 332h116z" />
    <glyph glyph-name="quotedblright" unicode="&#x201d;" horiz-adv-x="647" 
d="M424 754h170l-184 -332h-116zM167 754h171l-184 -332h-116z" />
    <glyph glyph-name="quotedblbase" unicode="&#x201e;" horiz-adv-x="647" 
d="M424 191h170l-184 -331h-116zM167 191h171l-184 -331h-116z" />
    <glyph glyph-name="dagger" unicode="&#x2020;" horiz-adv-x="679" 
d="M256 830h166v-169h177v-143h-177v-691h-166v691h-176v143h176v169z" />
    <glyph glyph-name="daggerdbl" unicode="&#x2021;" horiz-adv-x="679" 
d="M257 830h166v-148h176v-143h-176v-268h176v-143h-176v-301h-166v301h-177v143h177v268h-177v143h177v148z" />
    <glyph glyph-name="bullet" unicode="&#x2022;" horiz-adv-x="754" 
d="M379 542q32 0 60 -13t49 -35t33 -50t12 -59q0 -33 -12 -61.5t-33 -50t-49.5 -34t-61.5 -12.5q-32 0 -60 12.5t-49 33.5t-33.5 49.5t-12.5 61.5t12 61.5t33 50t50 34t62 12.5z" />
    <glyph glyph-name="ellipsis" unicode="&#x2026;" horiz-adv-x="1029" 
d="M741 96q0 24 9 45.5t25 37.5t37.5 25t45.5 9t45.5 -9t37.5 -25t25 -37.5t9 -45.5t-9 -45.5t-25 -37.5t-37.5 -25t-45.5 -9t-45.5 9t-37.5 25t-25 37.5t-9 45.5zM398 96q0 24 9 45.5t25 37.5t37.5 25t45.5 9t45.5 -9t37.5 -25t25 -37.5t9 -45.5t-9 -45.5t-25 -37.5
t-37.5 -25t-45.5 -9t-45.5 9t-37.5 25t-25 37.5t-9 45.5zM55 96q0 24 9 45.5t25 37.5t37.5 25t45.5 9t45.5 -9t37.5 -25t25 -37.5t9 -45.5t-9 -45.5t-25 -37.5t-37.5 -25t-45.5 -9t-45.5 9t-37.5 25t-25 37.5t-9 45.5z" />
    <glyph glyph-name="perthousand" unicode="&#x2030;" horiz-adv-x="1498" 
d="M1168 177q0 -18 7 -33.5t18.5 -27t27 -18.5t32.5 -7q18 0 34 7t27 19t17.5 27t6.5 32t-6.5 32.5t-18 27t-27 18.5t-33.5 7q-34 0 -59.5 -24.5t-25.5 -59.5zM1047 179q0 41 15 74.5t43 57t66.5 36.5t86.5 13q44 0 81 -13.5t63.5 -37.5t41.5 -57.5t15 -73.5
q0 -42 -15 -76.5t-42.5 -59t-66 -38t-84.5 -13.5t-83.5 13t-64.5 37.5t-41.5 59.5t-14.5 78zM684 177q0 -36 24.5 -61t60.5 -25q35 0 60 25t25 60q0 18 -7 33.5t-19 27t-27.5 18t-31.5 6.5q-33 0 -59 -24t-26 -60zM562 179q0 42 15.5 75.5t43 57t66.5 36t86 12.5
q45 0 82 -13.5t63.5 -38t41.5 -58t15 -72.5q0 -42 -15 -76.5t-42.5 -59t-66 -38t-85.5 -13.5q-46 0 -83.5 13t-64.5 37.5t-41.5 59.5t-14.5 78zM676 754h97l-437 -754h-98zM159 579q0 -34 24 -60t61 -26q17 0 32.5 7t27 18.5t18.5 27t7 32.5q0 18 -7 33.5t-19 27t-27.5 18
t-31.5 6.5q-34 0 -59.5 -24.5t-25.5 -59.5zM38 581q0 42 15.5 76t43.5 57t66.5 35.5t85.5 12.5q43 0 80 -13.5t64 -37.5t42 -57.5t15 -73.5q0 -43 -15.5 -77.5t-43 -59t-66 -37.5t-84.5 -13q-93 0 -148 50.5t-55 137.5z" />
    <glyph glyph-name="guilsinglleft" unicode="&#x2039;" horiz-adv-x="352" 
d="M178 258l129 -174l-103 -72l-172 246l172 245l100 -68z" />
    <glyph glyph-name="guilsinglright" unicode="&#x203a;" horiz-adv-x="352" 
d="M174 258l-126 177l100 68l172 -245l-172 -246l-103 72z" />
    <glyph glyph-name="fraction" unicode="&#x2044;" horiz-adv-x="196" 
d="M268 754h98l-437 -754h-98z" />
    <glyph glyph-name="uni20A0" unicode="&#x20a0;" horiz-adv-x="697" 
d="M602 10q-44 -20 -83.5 -25t-71.5 -5q-153 0 -272 100q-130 111 -130 291q0 96 34.5 174t105.5 136q57 47 122.5 68t137.5 21q82 0 178 -39v-190q-41 45 -92 63.5t-111 18.5q-108 0 -175 -71q-69 -72 -69 -179q0 -102 70 -174q67 -69 173 -69q57 0 107.5 17.5t95.5 60.5
v-189zM504 430q-7 26 -26.5 41.5t-47.5 15.5q-29 0 -47.5 -14.5t-23.5 -42.5h145zM356 356q0 -80 77 -80q41 0 62 33h122q-36 -123 -185 -123q-91 0 -149 53q-56 51 -56 137q0 90 54 141q54 52 146 52q90 0 143 -53q52 -52 52 -147v-13h-266z" />
    <glyph glyph-name="Euro" unicode="&#x20ac;" 
d="M526 -20q-86 0 -161 27.5t-131.5 75t-90.5 112t-38 139.5h368v-95h-143q10 -19 29.5 -35t45.5 -28t57 -19t64 -7v-170zM526 600q-66 0 -119.5 -25t-78.5 -70h145v-96h-368q5 75 38 141t88.5 115t130.5 77t164 28v-170z" />
    <glyph glyph-name="numero" unicode="&#x2116;" horiz-adv-x="1317" 
d="M1234 186h-386v152h386v-152zM1040 629q-25 0 -43 -17t-18 -42q0 -26 18 -44.5t44 -18.5q25 0 43 18t18 44t-18 43t-44 17zM1040 735q43 0 79 -12.5t61.5 -34.5t40 -52.5t14.5 -67.5q0 -36 -14.5 -67t-40 -53.5t-61.5 -35t-78 -12.5q-43 0 -79 12.5t-61.5 35t-40 53.5
t-14.5 69q0 36 14.5 66t40.5 52t61.5 34.5t77.5 12.5zM79 0v754h195l289 -427v427h194v-754h-194l-289 418v-418h-195z" />
    <glyph glyph-name="recording" unicode="&#x2117;" horiz-adv-x="953" 
d="M463 403h19q67 0 67 47q0 46 -67 46h-19v-93zM463 300v-153h-137v452h197q72 0 117 -39t45 -111q0 -35 -12 -63.5t-33 -48t-51 -29.5t-66 -9zM75 374q0 83 31.5 156.5t86 128t127.5 86t156 31.5t156.5 -31.5t128 -86t86 -128t31.5 -156.5t-31.5 -156t-86 -127.5t-128 -86
t-156.5 -31.5t-156 31.5t-127.5 86t-86 127.5t-31.5 156zM153 374q0 -67 25.5 -125.5t69.5 -102.5t102.5 -69.5t125.5 -25.5t125.5 25.5t102.5 69.5t69.5 102.5t25.5 125.5t-25.5 125.5t-69.5 102.5t-102.5 69.5t-125.5 25.5t-125.5 -25.5t-102.5 -69.5t-69.5 -102.5
t-25.5 -125.5z" />
    <glyph glyph-name="trademark" unicode="&#x2122;" horiz-adv-x="878" 
d="M320 324l72 430h116l82 -220l86 220h117l64 -430h-118l-29 233l-96 -233h-52l-91 233l-34 -233h-117zM208 653v-329h-118v329h-90v101h298v-101h-90z" />
    <glyph glyph-name="estimated" unicode="&#x212e;" horiz-adv-x="954" 
d="M751 606q0 16 -10 26q-50 51 -118 81.5t-145 30.5q-78 0 -146.5 -30.5t-118.5 -81.5q-10 -10 -10 -26v-217q0 -6 5 -6h538q5 0 5 6v217zM208 362q-5 0 -5 -6v-207q0 -16 10 -26q50 -52 118.5 -83t146.5 -31q82 0 153 34t120 91h65q-60 -67 -147.5 -107t-190.5 -40
q-90 0 -169 30.5t-138 83.5t-93 124t-34 151q0 81 34 152t93 124.5t138 84t169 30.5q89 0 168 -30.5t137.5 -84t92.5 -124.5t34 -152v-14h-702z" />
    <glyph glyph-name="partialdiff" unicode="&#x2202;" horiz-adv-x="565" 
d="M284 338q-19 0 -35.5 -7t-29 -19.5t-19.5 -30t-7 -37.5q0 -19 7 -36t19 -29.5t28 -20t35 -7.5q38 0 63.5 27.5t25.5 66.5q0 19 -7 36t-19 29.5t-27.5 20t-33.5 7.5zM78 748q235 -23 355.5 -133.5t120.5 -305.5q0 -74 -19 -133t-54.5 -100t-87.5 -63t-118 -22
q-57 0 -105 19.5t-82.5 54.5t-54 83.5t-19.5 106.5q0 49 17.5 91.5t48.5 74t72.5 49t88.5 17.5q78 0 121 -34q-16 29 -40 53t-61 42t-87.5 29t-118.5 15z" />
    <glyph glyph-name="Delta" unicode="&#x2206;" horiz-adv-x="749" 
d="M268 176h209l-102 365zM10 0l258 754h210l260 -754h-728z" />
    <glyph glyph-name="product" unicode="&#x220f;" horiz-adv-x="754" 
d="M17 848h720v-161h-80v-808h80v-161h-328v161h67v808h-198v-808h66v-161h-327v161h81v808h-81v161z" />
    <glyph glyph-name="summation" unicode="&#x2211;" horiz-adv-x="754" 
d="M717 848v-304h-182l-23 118h-246l269 -364l-267 -394h254l13 124h192v-310h-689v214l257 366l-257 335v215h679z" />
    <glyph glyph-name="minus" unicode="&#x2212;" horiz-adv-x="679" 
d="M72 441h535v-128h-535v128z" />
    <glyph glyph-name="uni2215" unicode="&#x2215;" horiz-adv-x="196" 
d="M268 754h98l-437 -754h-98z" />
    <glyph glyph-name="uni2219" unicode="&#x2219;" horiz-adv-x="340" 
d="M54 377q0 24 9 45.5t24.5 37.5t37 25t45.5 9t45.5 -9t37.5 -25t25 -37.5t9 -45.5t-9 -45.5t-25 -37t-37.5 -24.5t-45.5 -9t-45.5 9t-37 24.5t-24.5 37t-9 45.5z" />
    <glyph glyph-name="radical" unicode="&#x221a;" horiz-adv-x="754" 
d="M754 935v-167h-176l-180 -768h-239l-54 268h-105v167h219l24 -102q6 -28 10 -68t7 -96h11q7 81 20 163t35 173l103 430h325z" />
    <glyph glyph-name="infinity" unicode="&#x221e;" horiz-adv-x="754" 
d="M309 384q-43 58 -86 58q-26 0 -43.5 -16.5t-17.5 -42.5q0 -24 18 -41t44 -17q43 0 85 59zM445 384q42 -59 86 -59q24 0 42.5 17t18.5 42t-18.5 41.5t-43.5 16.5q-43 0 -85 -58zM380 294q-81 -93 -178 -93q-41 0 -74.5 14t-57.5 38.5t-37.5 58t-13.5 72.5q0 40 14 73.5
t38.5 58t58 38t72.5 13.5q92 0 172 -92q75 91 177 91q40 0 73.5 -13t58 -37t38.5 -57.5t14 -74.5q0 -40 -13.5 -73.5t-37.5 -58t-57.5 -38t-73.5 -13.5q-97 0 -173 93z" />
    <glyph glyph-name="integral" unicode="&#x222b;" horiz-adv-x="565" 
d="M55 -79q33 -11 50 -11q15 0 27.5 4t22 14.5t14.5 29.5t5 49v541q0 84 17.5 142t50.5 93t81.5 50.5t110.5 15.5q43 0 109 -12l-32 -192q-33 11 -52 11q-38 0 -52.5 -21.5t-14.5 -81.5v-429q0 -85 -1.5 -137t-3.5 -74q-6 -47 -28 -83t-56 -61t-78 -38t-95 -13
q-25 0 -50.5 2.5t-57.5 8.5z" />
    <glyph glyph-name="approxequal" unicode="&#x2248;" horiz-adv-x="565" 
d="M8 193q34 88 75.5 128.5t101.5 40.5q32 0 125 -35l40 -15q22 -9 37 -9q34 0 69 48l101 -72q-18 -46 -36.5 -78t-40 -52t-46.5 -29t-55 -9q-19 0 -50.5 8.5t-75.5 26.5q-28 11 -47 16.5t-31 5.5q-32 0 -65 -47zM8 466q35 88 76 128.5t101 40.5q17 0 48 -8.5t77 -26.5
l40 -16q18 -7 37 -7q35 0 69 47l101 -72q-35 -90 -76 -129t-102 -39q-38 0 -126 35q-54 22 -78 22q-32 0 -65 -47z" />
    <glyph glyph-name="notequal" unicode="&#x2260;" horiz-adv-x="565" 
d="M284 563l82 151l131 -73l-45 -78h76v-178h-148l-43 -74h190v-178h-255l-67 -122l-131 73l30 49h-66v178h131l43 74h-174v178h246z" />
    <glyph glyph-name="lessequal" unicode="&#x2264;" horiz-adv-x="565" 
d="M528 196v-187h-490v187h490zM528 760v-200l-257 -68l257 -67v-200l-490 179v178z" />
    <glyph glyph-name="greaterequal" unicode="&#x2265;" horiz-adv-x="565" 
d="M38 9v187h490v-187h-490zM38 225v200l256 67l-256 68v200l490 -178v-179z" />
    <glyph glyph-name="uni2400" unicode="&#x2400;" horiz-adv-x="500" 
 />
    <glyph glyph-name="lozenge" unicode="&#x25ca;" horiz-adv-x="754" 
d="M377 684l-223 -307l223 -306l223 306zM377 784l294 -407l-294 -406l-294 406z" />
    <glyph glyph-name="foundryicon" unicode="&#xe001;" horiz-adv-x="578" 
d="M423 234q28 0 51 10.5t41 28.5q-14 -36 -37 -66t-54 -51.5t-67.5 -34t-76.5 -12.5q-71 0 -127.5 34.5t-89.5 90.5h40v154h2l118 -154h65v250h-65v-152h-3l-117 152h-40q33 57 90 91t127 34q40 0 76.5 -12t67.5 -33.5t54 -51.5t36 -66q-35 38 -91 38h-92v-250h92zM396 429
h15q31 0 51 -18t20 -52q0 -36 -21.5 -52.5t-50.5 -16.5h-14v139z" />
    <glyph glyph-name="FLE003h" unicode="&#xe003;" horiz-adv-x="646" 
d="M388 -216l-91 -128l-54 73l63 82v9h-63v126h145v-162z" />
    <glyph glyph-name="Euro.alt01" unicode="&#xe004;" 
d="M39 498h82q33 104 124 179q114 93 258 93q52 0 109 -15l-48 -182q-13 3 -26 5t-27 2q-90 0 -146 -59q-5 -6 -10 -11.5t-9 -11.5h164l-25 -96h-175q-1 -8 -1.5 -15t-0.5 -15v-15.5t2 -15.5h159l-25 -95h-95q4 -5 8 -9.5t9 -9.5q57 -58 144 -58q14 0 26.5 2t25.5 5l49 -181
q-59 -15 -106 -15q-150 0 -271 101q-82 70 -113 165h-82v95h65q-1 8 -1 15v15v15.5t1 15.5h-65v96z" />
    <glyph glyph-name="Euro.alt02" unicode="&#xe005;" 
d="M526 -20q-86 0 -161 27.5t-131.5 75t-90.5 112t-38 139.5h368v-95h-143q10 -19 29.5 -35t45.5 -28t57 -19t64 -7v-170zM526 600q-66 0 -119.5 -25t-78.5 -70h145v-96h-368q5 75 38 141t88.5 115t130.5 77t164 28v-170z" />
    <glyph glyph-name="horizontalbar" unicode="&#xe014;" horiz-adv-x="373" 
d="M23 362v151h344v-151h-344z" />
    <glyph glyph-name="CE_mark" unicode="&#xe019;" horiz-adv-x="1180" 
d="M1180 2q-12 -2 -20 -2h-20q-87 0 -163.5 33t-133.5 90t-90 133.5t-33 163.5t33 163.5t90 133.5t133.5 90t163.5 33h20.5t19.5 -2v-120q-12 2 -20.5 2h-19.5q-52 0 -98.5 -16.5t-84.5 -46t-65.5 -69.5t-40.5 -88h229v-120h-238q7 -55 33 -102.5t66 -82.5t91 -55t108 -20
h20t20 2v-120zM460 2q-12 -2 -20 -2h-20q-87 0 -163.5 33t-133.5 90t-90 133.5t-33 163.5t33 163.5t90 133.5t133.5 90t163.5 33h20.5t19.5 -2v-120q-12 2 -20.5 2h-19.5q-62 0 -117 -23.5t-95.5 -64t-64 -95.5t-23.5 -117t23.5 -117t64 -95.5t95.5 -64t117 -23.5h20t20 2
v-120z" />
    <glyph glyph-name="Dotaccent" unicode="&#xe702;" horiz-adv-x="203" 
d="M0 919q0 21 8 39.5t21.5 32.5t32 22t39.5 8t39.5 -8t32.5 -22t22 -32.5t8 -39.5t-8 -39.5t-22 -32t-32.5 -21.5t-39.5 -8t-39.5 8t-32 21.5t-21.5 32t-8 39.5z" />
    <glyph glyph-name="Ring" unicode="&#xe703;" horiz-adv-x="311" 
d="M97 929q0 -44 57 -44q59 0 59 43t-59 43q-26 0 -41.5 -11.5t-15.5 -30.5zM0 929q0 53 42 85q40 31 113 31t114.5 -31.5t41.5 -85.5q0 -55 -41.5 -86t-114.5 -31t-114 31t-41 87z" />
    <glyph glyph-name="Circumflex" unicode="&#xe706;" horiz-adv-x="461" 
d="M0 900l230 136l231 -136l-54 -86l-177 89l-175 -89z" />
    <glyph glyph-name="Breve" unicode="&#xe708;" horiz-adv-x="431" 
d="M127 1000q15 -67 88 -67q74 0 89 67h127q-4 -81 -62 -128q-55 -46 -154 -46q-96 0 -154 46q-56 46 -61 128h127z" />
    <glyph glyph-name="Tilde" unicode="&#xe709;" horiz-adv-x="443" 
d="M0 833q0 74 34 117.5t87 43.5q21 0 47 -6.5t51.5 -14t47 -13.5t34.5 -6q32 0 43 41h99q-10 -90 -43.5 -126t-90.5 -36q-28 0 -55 6.5t-51 14t-43 14t-32 6.5q-11 0 -19 -8t-15 -33h-94z" />
    <glyph glyph-name="Cedilla" unicode="&#xe711;" horiz-adv-x="244" 
d="M244 -130l-156 -152l-88 61l132 170z" />
    <glyph glyph-name="Commaaccent" unicode="&#xe718;" horiz-adv-x="181" 
d="M181 626l-113 -159l-68 91l80 103l-1 10h-79v159h181v-204z" />
    <glyph glyph-name="Caroncapht" unicode="&#xe719;" horiz-adv-x="145" 
d="M145 622l-91 -99l-54 63l63 70h-63v98h145v-132z" />
    <glyph glyph-name="Dieresiscondensed" unicode="&#xe720;" horiz-adv-x="429" 
d="M234 923q0 41 28 69.5t69 28.5t69.5 -28.5t28.5 -69.5t-28.5 -69t-69.5 -28t-69 28t-28 69zM0 923q0 41 28 69.5t69 28.5t69.5 -28.5t28.5 -69.5t-28.5 -69t-69.5 -28t-69 28t-28 69z" />
    <glyph glyph-name="Circumflexcondensed" unicode="&#xe722;" horiz-adv-x="430" 
d="M0 900l215 136l215 -136l-54 -86l-161 89l-161 -89z" />
    <glyph glyph-name="Acutecondensed" unicode="&#xe723;" horiz-adv-x="268" 
d="M268 946l-192 -132l-76 71l163 156z" />
    <glyph glyph-name="Gravecondensed" unicode="&#xe724;" horiz-adv-x="268" 
d="M0 946l105 95l163 -156l-76 -71z" />
    <glyph glyph-name="Macroncondensed" unicode="&#xe725;" horiz-adv-x="354" 
d="M0 983h354v-111h-354v111z" />
    <glyph glyph-name="caronascenderht" unicode="&#xe769;" horiz-adv-x="145" 
d="M145 697l-90 -98l-55 63l63 70h-63v98h145v-133z" />
    <glyph glyph-name="dieresiscondensed" unicode="&#xe770;" horiz-adv-x="429" 
d="M233 691q0 19 8 37t21.5 31t31 21t37.5 8t37.5 -8t31 -21.5t21.5 -31t8 -37.5t-8 -37.5t-21 -31t-31 -21.5t-37 -8q-42 0 -70.5 28.5t-28.5 70.5zM0 691q0 19 8 37t21.5 31t31 21t37.5 8q19 0 37 -8t31 -21.5t21 -31.5t8 -37q0 -20 -8 -37.5t-21 -31t-31 -21.5t-37 -8
q-20 0 -37.5 7.5t-31 21t-21.5 31.5t-8 39z" />
    <glyph glyph-name="circumflexcondensed" unicode="&#xe772;" horiz-adv-x="399" 
d="M0 676l199 166l200 -166l-80 -88l-120 112l-123 -112z" />
    <glyph glyph-name="acutecondensed" unicode="&#xe773;" horiz-adv-x="258" 
d="M258 742l-174 -154l-84 62l143 175z" />
    <glyph glyph-name="gravecondensed" unicode="&#xe774;" horiz-adv-x="258" 
d="M0 742l115 83l143 -175l-84 -62z" />
    <glyph glyph-name="macroncondensed" unicode="&#xe775;" horiz-adv-x="305" 
d="M0 722h305v-111h-305v111z" />
    <glyph glyph-name="commaaccentmirrored" unicode="&#xe784;" horiz-adv-x="145" 
d="M0 720l90 99l55 -63l-63 -70h63v-98h-145v132z" />
    <glyph glyph-name="commaaccent" unicode="&#xf6c3;" horiz-adv-x="145" 
d="M145 -184l-91 -98l-54 63l63 70h-63v98h145v-133z" />
    <glyph glyph-name="Acute" unicode="&#xf6c9;" horiz-adv-x="268" 
d="M268 946l-192 -132l-76 71l163 156z" />
    <glyph glyph-name="Caron" unicode="&#xf6ca;" horiz-adv-x="460" 
d="M460 950l-230 -136l-230 136l54 86l176 -89l176 89z" />
    <glyph glyph-name="Dieresis" unicode="&#xf6cb;" horiz-adv-x="468" 
d="M272 925q0 19 7.5 36.5t21 31t31.5 21t38 7.5t37.5 -7.5t31 -20.5t21.5 -31t8 -38q0 -42 -28.5 -70t-69.5 -28q-42 0 -70 28.5t-28 70.5zM0 925q0 19 7.5 36.5t21 31t31.5 21t38 7.5t37.5 -7.5t31 -20.5t21.5 -31t8 -38q0 -21 -8 -38.5t-21 -31t-31 -21t-37 -7.5
q-43 0 -71 29t-28 70z" />
    <glyph glyph-name="Grave" unicode="&#xf6ce;" horiz-adv-x="268" 
d="M0 946l105 95l163 -156l-76 -71z" />
    <glyph glyph-name="Hungarumlaut" unicode="&#xf6cf;" horiz-adv-x="500" 
d="M500 946l-174 -132l-61 71l150 156zM234 946l-174 -132l-60 71l149 156z" />
    <glyph glyph-name="Macron" unicode="&#xf6d0;" horiz-adv-x="396" 
d="M0 983h396v-111h-396v111z" />
    <glyph glyph-name="apple" unicode="&#xf8ff;" horiz-adv-x="578" 
d="M423 234q28 0 51 10.5t41 28.5q-14 -36 -37 -66t-54 -51.5t-67.5 -34t-76.5 -12.5q-71 0 -127.5 34.5t-89.5 90.5h40v154h2l118 -154h65v250h-65v-152h-3l-117 152h-40q33 57 90 91t127 34q40 0 76.5 -12t67.5 -33.5t54 -51.5t36 -66q-35 38 -91 38h-92v-250h92zM396 429
h15q31 0 51 -18t20 -52q0 -36 -21.5 -52.5t-50.5 -16.5h-14v139z" />
    </font>
</defs>
</svg>
